Блудная дочь / Prodigal daughter (Руперт Сандерс, Сержио Фальконе) [2015, США, пародия, фэнтэзи, HDRip] (MVO : (альтернативный перевод Сержио Фальконе))

Ответить на тему
 

Behzod5555 ®

Стаж: 2 года 4 месяца

Сообщений: 21

Симпатии: 55

Блудная дочь / Prodigal daughter-- Страна: США--Жанр: пародия, фэнтэзи--Год выпуска: 2015--Продолжительность: 01:33:48--Перевод: Любительский (многоголосый закадровый) Доп. инфо о переводе (альтернативный перевод Сержио Фальконе)--Режиссер: Руперт Сандерс, Сержио Фальконе--В ролях: Кристен Стюарт, Крис Хемсворт, Шарлиз Терон, Сэм Клафлин, Сэм Спруэлл, Иэн МакШейн, Боб Хоскинс, Рэй Уинстон, Ник Фрост--Описание: Альтернативный монтажный перевод на основе фильмов "Белоснежка и охотник" и "Однажды в Голливуде".
Ветхий Завет, Новый Завет, 10 заповедей, Коран… Высшие силы всегда обретали свою силу среди смертных через рукотворную письменность.
«Так чем же я хуже?» подумал Сатана и решил создать Сатанинские Хроники. Летопись Преисподней, призванную запечатлеть подвиги Люцифера, сына Божьего, а также его сынов и дочерей на страницах из выдубленных скальпов грешников — грешной кровью грешников. Очередная глава Хроник расскажет о дочери Царя Ада, Лилит, и ее противостоянии с Евой, первой женщиной Людей.--Качество видео: HDRip
Формат видео: AVI--Видео: 720x400, 25 fps, XviD MPEG-4 ~2188 kbps avg, 0.304 bit/pixel
Аудио: 48 kHz, MPEG Layer 3, 2 ch, ~192.00 kbps avg--

MediaInfo

General
Complete name : D:\Down\Bludnaya.doch.2015.HDRip.avi
Format : AVI
Format/Info : Audio Video Interleave
File size : 1.57 GiB
Duration : 1h 33mn
Overall bit rate : 2 390 Kbps
Writing application : VirtualDubMod 1.5.10.2 (build 2540/release)
Writing library : VirtualDubMod build 2540/release
Video
ID : 0
Format : MPEG-4 Visual
Format profile : Advanced [email protected]
Format settings, BVOP : Yes
Format settings, QPel : No
Format settings, GMC : No warppoints
Format settings, Matrix : Default (MPEG)
Codec ID : XVID
Codec ID/Hint : XviD
Duration : 1h 33mn
Bit rate : 2 188 Kbps
Width : 720 pixels
Height : 400 pixels
Display aspect ratio : 16:9
Frame rate : 25.000 fps
Color space : YUV
Chroma subsampling : 4:2:0
Bit depth : 8 bits
Scan type : Progressive
Compression mode : Lossy
Bits/(Pixel*Frame) : 0.304
Stream size : 1.43 GiB (92%)
Writing library : XviD 73
Audio
ID : 1
Format : MPEG Audio
Format version : Version 1
Format profile : Layer 3
Codec ID : 55
Codec ID/Hint : MP3
Duration : 1h 33mn
Bit rate mode : Constant
Bit rate : 192 Kbps
Channel(s) : 2 channels
Sampling rate : 48.0 KHz
Compression mode : Lossy
Delay relative to video : 18ms
Stream size : 129 MiB (8%)
Alignment : Split accross interleaves
Interleave, duration : 40 ms (1.00 video frame)
Interleave, preload duration : 500 ms
Writing library : LAMELAME_MAJOR_VERSI

Скриншоты



Создавать темы 24-Июл-2015 14:04

[Профиль]  [ЛС] 

Farnerud

Стаж: 7 лет

Сообщений: 13

...что это за фильм??? На кинопоиске найти не могу даже))

Создавать темы 24-Июл-2015 20:41

[Профиль]  [ЛС] 

outoforder

Стаж: 5 лет 1 месяц

Сообщений: 812

Симпатии: 172

ну на кинопоиск добавляют какбэ тоже макаки с клавиатурами, так что - не аргумент
хотя, кино и вправду скатилось. В топе почти одно ретро.

Создавать темы 24-Июл-2015 20:53

[Профиль]  [ЛС] 

MNjon

Стаж: 5 лет 3 месяца

Сообщений: 101

Симпатии: 5

Мощное описание! Посмотрим :)

Создавать темы 25-Июл-2015 00:39

[Профиль]  [ЛС] 

Александр Гузов

Стаж: 4 года 11 месяцев

Сообщений: 112

Симпатии: 6

да это же тупо "Белоснежка и Охотник" только в переводе под "гоблина"

Создавать темы 26-Июл-2015 06:58

[Профиль]  [ЛС] 

SkoroXod

Стаж: 2 года 3 месяца

Сообщений: 99

Симпатии: 78

Альтернативный перевод и монтаж супер - люди постарались на совесть. Однако, я смысл этого нового фильма не очень уловил... Может из-за того, что не смотрел оригинал фильма... Не знаю. В общем, новая трактовка фильма качественная, думаю будет интересна людям просмотревшим оригинальную версию картины.

Создавать темы 06-Окт-2015 21:28

[Профиль]  [ЛС] 
Показать сообщения:    
Ответить на тему

Текущее время: 16-Дек 08:33

Часовой пояс: UTC + 5



Вы не можете начинать темы
Вы не можете отвечать на сообщения
Вы не можете редактировать свои сообщения
Вы не можете удалять свои сообщения
Вы не можете голосовать в опросах
Вы не можете прикреплять файлы к сообщениям
Вы не можете скачивать файлы