Мэгги / Maggie (Генри Хобсон) [2015, США, Швейцария, драма, триллер, ужасы, BDRip] (AVO : [Lord32x])

Ответить на тему
 

Behzod5555 ®

Стаж: 2 года 3 месяца

Сообщений: 21

Симпатии: 55

Мэгги / Maggie--
Страна: США, Швейцария--
Жанр: драма, триллер, ужасы-
Год выпуска: 2015-

Продолжительность: 01:35:00--
Перевод: Авторский (одноголосый закадровый) Доп. инфо о переводе [Lord32x]--
Режиссер: Генри Хобсон--
В ролях: Арнольд Шварценеггер, Эбигейл Бреслин, Джоэли Ричардсон, Лора Кайюэтт, Эми Брассетт, Денис Уильямсон, Дж.Д. Эвермор, Рэден Грир, Эйден Флауэрс, Тейлор Мерфи--Описание: История о девочке-подростке, которая оказывается зараженной в результате вспыхнувшей эпидемии и теперь медленно превращается в зомби...--
Качество видео: BDRip
Формат видео: AVI--Видео: XviD,1743 kb/s, 730x304
Аудио: AC3, 384 kb/s (6 ch)--

MediaInfo

General
Complete name : D:\Down\Maggie.2015.WEBDLRip.1400mb.avi
Format : AVI
Format/Info : Audio Video Interleave
File size : 1.40 GiB
Duration : 1h 35mn
Overall bit rate : 2 113 Kbps
Writing application : VirtualDubModRus 1.5.10.2 (build 2542/release)
Writing library : VirtualDubMod build 2542/release
Video
ID : 0
Format : MPEG-4 Visual
Format profile : Advanced [email protected]
Format settings, BVOP : Yes
Format settings, QPel : No
Format settings, GMC : No warppoints
Format settings, Matrix : Default (H.263)
Codec ID : XVID
Codec ID/Hint : XviD
Duration : 1h 35mn
Bit rate : 1 720 Kbps
Width : 720 pixels
Height : 304 pixels
Display aspect ratio : 2.35:1
Frame rate : 23.976 fps
Color space : YUV
Chroma subsampling : 4:2:0
Bit depth : 8 bits
Scan type : Progressive
Compression mode : Lossy
Bits/(Pixel*Frame) : 0.328
Stream size : 1.14 GiB (81%)
Writing library : XviD 66
Audio
ID : 1
Format : AC-3
Format/Info : Audio Coding 3
Mode extension : CM (complete main)
Format settings, Endianness : Big
Codec ID : 2000
Duration : 1h 35mn
Bit rate mode : Constant
Bit rate : 384 Kbps
Channel(s) : 6 channels
Channel positions : Front: L C R, Side: L R, LFE
Sampling rate : 48.0 KHz
Bit depth : 16 bits
Compression mode : Lossy
Stream size : 261 MiB (18%)
Alignment : Split accross interleaves
Interleave, duration : 42 ms (1.00 video frame)
Interleave, preload duration : 500 ms

Скриншоты



Создавать темы 24-Июл-2015 14:57

[Профиль]  [ЛС] 

Сергей74

Стаж: 2 года 7 месяцев

Сообщений: 211

Симпатии: 293

мой тередо
[2001:0:b908:d4d8:3461:285e:a418:c7f9]:55555
добавляйте в пирах
Модераторы исправьте пожалуйста..статус проверено,автор не сможет
[b]Перевод[/b]: Профессиональное (многоголосое) [b]MVO[/b]  [color=blue]ViruseProject[/color]
[b]Качество:[/b] HDRip
[b]Формат:[/b] AVI
[b]Видео:[/b] XviD, 1808 Кбит/с, 720x304
[b]Аудио:[/b] АС3, 6 ch, 384 Кбит/с

Постер

[img=right]http://img.tas-ix.net/images/2015/05/10/330ac76fabf12ea6567f8cd59e0ff67b.jpg[/img]

МедиаИнфо

[spoiler="МедиаИнфо"]
M0gg1e.2015.P.HDRip.1400Mb.avi
Format                                   : AVI
Format/Info                              : Audio Video Interleave
File size                                : 1.46 GiB
Duration                                 : 1h 35mn
Overall bit rate                         : 2 202 Kbps
Writing application                      : VirtualDubMod 1.5.10.2 (build 2540/release)
Writing library                          : VirtualDubMod build 2540/release
Video
ID                                       : 0
Format                                   : MPEG-4 Visual
Format profile                           : Advanced [email protected]
Format settings, BVOP                    : 2
Format settings, QPel                    : No
Format settings, GMC                     : No warppoints
Format settings, Matrix                  : Default (MPEG)
Codec ID                                 : XVID
Codec ID/Hint                            : XviD
Duration                                 : 1h 35mn
Bit rate                                 : 1 808 Kbps
Width                                    : 720 pixels
Height                                   : 304 pixels
Display aspect ratio                     : 2.35:1
Frame rate                               : 23.976 fps
Color space                              : YUV
Chroma subsampling                       : 4:2:0
Bit depth                                : 8 bits
Scan type                                : Progressive
Compression mode                         : Lossy
Bits/(Pixel*Frame)                       : 0.345
Stream size                              : 1.20 GiB (82%)
Writing library                          : XviD 1.2.1 (UTC 2008-12-04)
Audio
ID                                       : 1
Format                                   : AC-3
Format/Info                              : Audio Coding 3
Mode extension                           : CM (complete main)
Format settings, Endianness              : Big
Codec ID                                 : 2000
Duration                                 : 1h 35mn
Bit rate mode                            : Constant
Bit rate                                 : 384 Kbps
Channel(s)                               : 6 channels
Channel positions                        : Front: L C R, Side: L R, LFE
Sampling rate                            : 48.0 KHz
Bit depth                                : 16 bits
Compression mode                         : Lossy
Stream size                              : 261 MiB (17%)
Alignment                                : Split accross interleaves
Interleave, duration                     : 42 ms (1.00 video frame)
Interleave, preload duration             : 500 ms
[/spoiler]

Скрины

[spoiler="Скрины"]
[img]http://img.tas-ix.net/images/2015/07/26/89962cb49980d00466e40e55604ce466.jpg[/img]
[img]http://img.tas-ix.net/images/2015/07/26/797c09dd0abd2b2cd198bf166ebe5687.jpg[/img]
[img]http://img.tas-ix.net/images/2015/07/26/ae9e5abc2e93a43a98c6b707fe26fe77.jpg[/img]
[img]http://img.tas-ix.net/images/2015/07/26/6f2b3c88d3a269410d306f3b7db19c41.jpg[/img]
[img]http://img.tas-ix.net/images/2015/07/26/94c63711c53a5ed8cb09c3ea452ee3cf.jpg[/img][/spoiler]




Создавать темы 26-Июл-2015 02:55

[Профиль]  [ЛС] 
Показать сообщения:    
Ответить на тему

Текущее время: 20-Ноя 20:26

Часовой пояс: UTC + 5



Вы не можете начинать темы
Вы не можете отвечать на сообщения
Вы не можете редактировать свои сообщения
Вы не можете удалять свои сообщения
Вы не можете голосовать в опросах
Вы не можете прикреплять файлы к сообщениям
Вы не можете скачивать файлы