Мастера Секса / Masters of Sex / Сезон: 3 / Серии: 1-12 из 12 (Майкл Эптед, Майкл Диннер, Дженнифер Гетцингер) [2015, Драма, экранизация, HDTVRip] MVO (Amedia) + Original + Subs (Rus, Eng)

Ответить на тему
 

Mamutov ®

Стаж: 4 года 8 месяцев

Сообщений: 255

Симпатии: 144

--Мастера Секса / Masters of Sex-- • Год выпуска: 2015
• Страна: США
• Жанр: Драма, экранизация
• Продолжительность: ~ 00:59:00

-• Перевод: Профессиональный многоголосый закадровый-• Режиссёр: Майкл Эптед, Майкл Диннер, Дженнифер Гетцингер, Фил Абрахам-• В ролях: Майкл Шин, Лиззи Каплан, Николас Д`Агосто, Кэйтлин Фицджералд, Тедди Сирс, Хелен Йорк, Кайла Мэдисон, Билл Лэйн, Коул Сэнд, Кристофер Клауси-• Описание: Сериал Мастера секса является экранизацией книги Томаса Майера с претенциозным названием «Мастера секса: Жизнь и время Уильяма Мастерса и Вирджинии Джонсон, пары, которая учила Америку любить». Это история жизни людей, которые проводят постоянные исследования человеческой сексуальности и попробуют их на себе. Это сериал об отношениях между Уильямом (Майкл Шин) и Вирджинией (Лиззи Каплан), которые были первопроходцами в этой теме. Исследователи – сексологи решают выяснить, что в мире может доставить невероятное удовольствие, и что при этом происходит в головном мозге, при достижении этого самого удовольствия. Действие сериала происходит в Америке в 60-е годы прошлого столетия.-• Качество: HDTVRip
• Формат: AVI
• Видео кодек: XviD
• Аудио кодек: MP3
• Видео: XviD, 720x400 (16:9), 23,976 fps, ~1400 kbps
• Аудио 1: MP3, 48 kHz, 2 ch, 128 kbps - Rus
• Аудио 2: MP3, 48 kHz, 2 ch, 128 kbps - Eng
• Субтитры: Русские (амедиа) | Английские

MediaInfo

Общее
Формат : AVI
Формат/Информация : Audio Video Interleave
Размер файла : 700 Мбайт
Продолжительность : 58 м.
Общий поток : 1662 Кбит/сек
Программа кодирования : VirtualDubMod 1.5.10.3 | www.virtualdub-fr.org || (build 2550/release)
Библиотека кодирования : VirtualDubMod build 2550/release
Видео
Идентификатор : 0
Формат : MPEG-4 Visual
Профиль формата : Advanced [email protected]
Параметр BVOP формата : 2
Параметр QPel формата : Нет
Параметр GMC формата : Без точки перехода
Параметр матрицы формата : Default (MPEG)
Идентификатор кодека : XVID
Идентификатор кодека/Подсказка : XviD
Продолжительность : 58 м.
Битрейт : 1392 Кбит/сек
Ширина : 720 пикселей
Высота : 400 пикселей
Соотношение сторон : 16:9
Частота кадров : 23,976 кадра/сек
Цветовое пространство : YUV
Субдискретизация насыщенности : 4:2:0
Битовая глубина : 8 бит
Тип развёртки : Прогрессивная
Метод сжатия : С потерями
Бит/(Пиксели*Кадры) : 0.202
Размер потока : 587 Мбайт (84%)
Библиотека кодирования : XviD 73
Аудио #1
Идентификатор : 1
Формат : MPEG Audio
Версия формата : Version 1
Профиль формата : Layer 3
Режим : Joint stereo
Расширение режима : MS Stereo
Идентификатор кодека : 55
Идентификатор кодека/Подсказка : MP3
Продолжительность : 58 м.
Вид битрейта : Постоянный
Битрейт : 128 Кбит/сек
Каналы : 2 канала
Частота : 48,0 КГц
Метод сжатия : С потерями
Размер потока : 54,0 Мбайт (8%)
Выравнивание : Соединение по промежуткам
Продолжительность промежутка : 42 мс. (1,00 видеокадр)
Время предзагрузки промежутка : 504 мс.
Аудио #2
Идентификатор : 2
Формат : MPEG Audio
Версия формата : Version 1
Профиль формата : Layer 3
Режим : Joint stereo
Расширение режима : MS Stereo
Идентификатор кодека : 55
Идентификатор кодека/Подсказка : MP3
Продолжительность : 58 м.
Вид битрейта : Постоянный
Битрейт : 128 Кбит/сек
Каналы : 2 канала
Частота : 48,0 КГц
Метод сжатия : С потерями
Размер потока : 54,0 Мбайт (8%)
Выравнивание : Соединение по промежуткам
Продолжительность промежутка : 42 мс. (1,00 видеокадр)
Время предзагрузки промежутка : 504 мс.

Скриншоты





Последний раз редактировалось: Mamutov (2015-10-20 21:24), всего редактировалось 11 раз(а)

Создавать темы 24-Июл-2015 23:11

[Профиль]  [ЛС] 

Mamutov ®

Стаж: 4 года 8 месяцев

Сообщений: 255

Симпатии: 144

3 серия

Создавать темы 31-Июл-2015 21:22

[Профиль]  [ЛС] 

миша70

Стаж: 5 лет

Сообщений: 174

Симпатии: 21

сериал про ХИПИ это прикольно tp

Создавать темы 31-Июл-2015 23:01

[Профиль]  [ЛС] 

Mamutov ®

Стаж: 4 года 8 месяцев

Сообщений: 255

Симпатии: 144

4 серия

Создавать темы 06-Авг-2015 23:09

[Профиль]  [ЛС] 

Mamutov ®

Стаж: 4 года 8 месяцев

Сообщений: 255

Симпатии: 144

5 серия

Создавать темы 14-Авг-2015 09:12

[Профиль]  [ЛС] 

Mamutov ®

Стаж: 4 года 8 месяцев

Сообщений: 255

Симпатии: 144

6 серия

Создавать темы 20-Авг-2015 20:04

[Профиль]  [ЛС] 

Mamutov ®

Стаж: 4 года 8 месяцев

Сообщений: 255

Симпатии: 144

7 серия

Создавать темы 29-Авг-2015 20:25

[Профиль]  [ЛС] 

beki

Стаж: 6 лет 10 месяцев

Сообщений: 27

Симпатии: 5

а гдеже 8-серия

Создавать темы 13-Сен-2015 08:52

[Профиль]  [ЛС] 

Mamutov ®

Стаж: 4 года 8 месяцев

Сообщений: 255

Симпатии: 144

8-9-10 серии

Создавать темы 16-Сен-2015 09:17

[Профиль]  [ЛС] 

Mamutov ®

Стаж: 4 года 8 месяцев

Сообщений: 255

Симпатии: 144

11 серия

Создавать темы 28-Сен-2015 00:19

[Профиль]  [ЛС] 

Mamutov ®

Стаж: 4 года 8 месяцев

Сообщений: 255

Симпатии: 144

добавлено 12 серия конец сезона

Создавать темы 02-Окт-2015 09:02

[Профиль]  [ЛС] 
Показать сообщения:    
Ответить на тему

Текущее время: 26-Сен 18:55

Часовой пояс: UTC + 5



Вы не можете начинать темы
Вы не можете отвечать на сообщения
Вы не можете редактировать свои сообщения
Вы не можете удалять свои сообщения
Вы не можете голосовать в опросах
Вы не можете прикреплять файлы к сообщениям
Вы не можете скачивать файлы