Ошибки прошлого / Rectify / Сезон: 1-2 полный / Серии: 1-16 из 16 (Билл Джирхарт, Кит Гордон, Николь Кэссел) [2013-2014, драма, WEB-DLRip] (MVO : To4ka) (rus sub + Original)

Ответить на тему
 

saidali ®

Стаж: 5 лет 9 месяцев

Сообщений: 868

Симпатии: 554

--Ошибки прошлого | Rectify--
Год выпуска: 2013-2014
Страна: США
Жанр: драма
Продолжительность: ~ 46 минут-Перевод: Любительский многоголосый закадровый | To4ka
Русские субтитры: есть
Режиссёр: Билл Джирхарт, Кит Гордон, Николь Кэссел-В ролях: Аден Янг, Дж. Смит-Камерон, Клейн Кроуфорд, Люк Кирби, Джейк Остин Уолкер, Майкл О’Нил и др.-Описание: Проведя 19 лет в камере смертников за изнасилование и убийство своей 16-летней девушки, Дэниел Холден возвращается домой. Его приговор был отменен из-за возникновения новых доказательств ДНК. Проведя большую часть сознательной жизни в ожидании смерти, Дэниел должен теперь заново научиться жить.-Качество: WEB-DLRip
Формат: AVI
Видео кодек: XviD
Аудио кодек: MP3
Видео: 720x400 (16:9), 23.976 fps, ~1200 kbps, ~0.170 bit/pixel
Аудио: 48 kHz, 2 ch, ~128 kbps |To4ka|
Аудио 2: 48 kHz, 2 ch, ~128 kbps |Original|
-

MediaInfo

Общее
Полное имя : G:\Rectify.s01.WEB-DLRip.Rus.Eng.[To4ka.TV]\Rectify.s01e01.WEB-DLRip.Rus.Eng.[To4ka.TV].avi
Формат : AVI
Формат/Информация : Audio Video Interleave
Размер файла : 500 Мбайт
Продолжительность : 47 м.
Общий поток : 1458 Кбит/сек
Программа кодирования : VirtualDubModRus 1.5.10.2 (build 2542/release)
Библиотека кодирования : VirtualDubMod build 2542/release
Видео
Идентификатор : 0
Формат : MPEG-4 Visual
Профиль формата : Advanced [email protected]
Параметр BVOP формата : 1
Параметр QPel формата : Нет
Параметр GMC формата : Без точки перехода
Параметр матрицы формата : Выборочная
Идентификатор кодека : XVID
Идентификатор кодека/Подсказка : XviD
Продолжительность : 47 м.
Битрейт : 1188 Кбит/сек
Ширина : 720 пикселей
Высота : 400 пикселей
Соотношение сторон : 16:9
Частота кадров : 23,976 кадра/сек
Цветовое пространство : YUV
Субдискретизация насыщенности : 4:2:0
Битовая глубина : 8 бит
Тип развёртки : Прогрессивная
Метод сжатия : С потерями
Бит/(Пиксели*Кадры) : 0.172
Размер потока : 408 Мбайт (81%)
Библиотека кодирования : XviD 64
Аудио #1
Идентификатор : 1
Формат : MPEG Audio
Версия формата : Version 1
Профиль формата : Layer 3
Режим : Joint stereo
Расширение режима : MS Stereo
Идентификатор кодека : 55
Идентификатор кодека/Подсказка : MP3
Продолжительность : 47 м.
Вид битрейта : Постоянный
Битрейт : 128 Кбит/сек
Каналы : 2 канала
Частота : 48,0 КГц
Метод сжатия : С потерями
Размер потока : 43,9 Мбайт (9%)
Выравнивание : Соединение по промежуткам
Продолжительность промежутка : 42 мс. (1,00 видеокадр)
Время предзагрузки промежутка : 504 мс.
Аудио #2
Идентификатор : 2
Формат : MPEG Audio
Версия формата : Version 1
Профиль формата : Layer 3
Режим : Joint stereo
Расширение режима : MS Stereo
Идентификатор кодека : 55
Идентификатор кодека/Подсказка : MP3
Продолжительность : 47 м.
Вид битрейта : Постоянный
Битрейт : 128 Кбит/сек
Каналы : 2 канала
Частота : 48,0 КГц
Метод сжатия : С потерями
Размер потока : 43,9 Мбайт (9%)
Выравнивание : Соединение по промежуткам
Продолжительность промежутка : 42 мс. (1,00 видеокадр)
Время предзагрузки промежутка : 504 мс.

Скриншоты





Создавать темы 24-Июл-2015 23:33

[Профиль]  [ЛС] 
Показать сообщения:    
Ответить на тему

Текущее время: 23-Ноя 14:37

Часовой пояс: UTC + 5



Вы не можете начинать темы
Вы не можете отвечать на сообщения
Вы не можете редактировать свои сообщения
Вы не можете удалять свои сообщения
Вы не можете голосовать в опросах
Вы не можете прикреплять файлы к сообщениям
Вы не можете скачивать файлы