Битва за Скайарк / Battle for Skyark (Саймон Хунг) [2015, США, фантастика, боевик, приключения, семейный, HDRip] (MVO : [datynet], перевод [Алексей Крылов])

Ответить на тему
 

Behzod5555 ®

Стаж: 2 года 2 месяца

Сообщений: 21

Симпатии: 55

Битва за Скайарк / Battle for Skyark-- Страна: США--Жанр: фантастика, боевик, приключения, семейный--Год выпуска: 2015--Продолжительность: 01:28:26--Перевод: Любительский (закадровый) Доп. инфо о переводе [datynet], перевод [Алексей Крылов]--Режиссер: Саймон Хунг--В ролях: Каон Мортенсон, Гаррет Коффи, Taylor Coliee, Райли Джейн, Чантал Тхюй, Джада Фейсер, Мэттью Миллер, Кайл Пацек, Джейден Мартин, Алан Петрушевски--Описание: Недалекое будущее. Земля захвачена инопланетными монстрами, и жить на ней стало невозможно. Монстры не только превратили Землю в подобие свалки, но еще и продолжают уничтожать оставшееся немногочисленное население, состоящее в основном из осиротевших в результате продолжительной войны детей. Единственная возможность спастись, это попасть на огромный космический корабль «СкайАрк», являющийся последним выбором для продолжения жизни людей. Отважный сын погибшего командира берет на себя роль спасителя. Он вместе со своими друзьями борется с монстрами, пробиваясь к морю, где СкайАрк должен их всех забрать с погибшей планеты…--Качество видео: HDRip
Формат видео: AVI--Видео: 1819 kb/s, 720x304
Аудио: Russian / English: AC3, 192 kb/s (2 ch)
--

MediaInfo

General
Format : AVI
Format/Info : Audio Video Interleave
File size : 1.37 GiB
Duration : 1h 28mn
Overall bit rate : 2 217 Kbps
Writing application : VirtualDubMod 1.5.10.3 | www.virtualdub-fr.org || (build 2550/release)
Writing library : VirtualDubMod build 2550/release
Video
ID : 0
Format : MPEG-4 Visual
Codec ID : XVID
Codec ID/Hint : XviD
Duration : 1h 28mn
Bit rate : 1 734 Kbps
Width : 720 pixels
Height : 304 pixels
Display aspect ratio : 2.35:1
Frame rate : 23.976 fps
Color space : YUV
Chroma subsampling : 4:2:0
Compression mode : Lossy
Bits/(Pixel*Frame) : 0.330
Stream size : 1.07 GiB (78%)
Audio #1
ID : 1
Format : AC-3
Format/Info : Audio Coding 3
Codec ID : 2000
Duration : 1h 28mn
Bit rate mode : Constant
Bit rate : 192 Kbps
Channel(s) : 2 channels
Sampling rate : 48.0 KHz
Compression mode : Lossy
Stream size : 121 MiB (9%)
Alignment : Aligned on interleaves
Audio #2
ID : 2
Format : AC-3
Format/Info : Audio Coding 3
Codec ID : 2000
Duration : 1h 28mn
Bit rate mode : Constant
Bit rate : 192 Kbps
Channel(s) : 2 channels
Sampling rate : 48.0 KHz
Compression mode : Lossy
Stream size : 121 MiB (9%)
Alignment : Aligned on interleaves

Скриншоты





Последний раз редактировалось: Behzod5555 (2015-07-25 14:10), всего редактировалось 1 раз

Создавать темы 25-Июл-2015 11:48

[Профиль]  [ЛС] 

alexey.555

Стаж: 5 лет 6 месяцев

Сообщений: 137

Симпатии: 22

Товарищ Behzod5555, ты в курсе что твои скриншоты, а так-же постер не выдают картинку, заливай на http://img.tas-ix.net/

Создавать темы 25-Июл-2015 23:06

[Профиль]  [ЛС] 

Behzod5555 ®

Стаж: 2 года 2 месяца

Сообщений: 21

Симпатии: 55

alexey.555, я немогу изменит это

Создавать темы 01-Авг-2015 15:54

[Профиль]  [ЛС] 

alexey.555

Стаж: 5 лет 6 месяцев

Сообщений: 137

Симпатии: 22

Behzod5555, тогда подумай как изменить это!

Создавать темы 02-Авг-2015 11:18

[Профиль]  [ЛС] 

Сергей74

Стаж: 2 года 6 месяцев

Сообщений: 211

Симпатии: 293

945573Товарищ Behzod5555, ты в курсе что твои скриншоты, а так-же постер не выдают картинку, заливай на http://img.tas-ix.net/
Когда раздача Статус: √ проверено ,релизёр не может изменять описание..только модераторы

Создавать темы 02-Авг-2015 14:32

[Профиль]  [ЛС] 

aziz_hack

Стаж: 6 лет 11 месяцев

Сообщений: 14

Симпатии: 6

фильм детский

Создавать темы 02-Авг-2015 15:05

[Профиль]  [ЛС] 

alexey.555

Стаж: 5 лет 6 месяцев

Сообщений: 137

Симпатии: 22

Сергей74, А как можно было поставить Проверено, если постер и др. картинки не отображается? )

Создавать темы 03-Авг-2015 00:25

[Профиль]  [ЛС] 
Показать сообщения:    
Ответить на тему

Текущее время: 24-Окт 01:45

Часовой пояс: UTC + 5



Вы не можете начинать темы
Вы не можете отвечать на сообщения
Вы не можете редактировать свои сообщения
Вы не можете удалять свои сообщения
Вы не можете голосовать в опросах
Вы не можете прикреплять файлы к сообщениям
Вы не можете скачивать файлы