Монстры 2: Тёмный континент / Monsters: Dark Continent (Том Грин) [2014, Великобритания, Фильм, Военный, Драма, Триллер, Фантастика, DVDRip] (MVO)

Ответить на тему
 

Behzod5555 ®

Стаж: 2 года 4 месяца

Сообщений: 21

Симпатии: 55

Монстры 2: Тёмный континент / Monsters: Dark Continent--
Страна: Великобритания--Жанр: Фильм, Военный, Драма, Триллер, Фантастика--Год выпуска: 2014--Продолжительность: 01:59:00--Перевод: Профессиональный (многоголосый, закадровый)--Режиссер: Том Грин--В ролях: Джонни Харрис, Сэм Кили, Джозеф Демпси, Кайл Соллер, Николас Пиннок, Паркер Сойерс, Филип Ардитти, София Бутелла, Михаэла Коэл--Описание: Прошло 7 лет после событий первой части, и «зараженные зоны» распространились по всему миру. Теперь человечество борется за выживание. Эмилио, молодой врач, присоединяется к спасательной операции по поиску пропавших в самом центре территории монстров. Ужас того, о чем он узнает во время экспедиции, не поддается описанию…--Качество видео: DVDRip
Формат видео: AVI--Видео: Xvid 720x304 23.976fps [Stream 00]
Аудио: Dolby AC3 48000Hz stereo 192kbps [Stream 01]--

MediaInfo

General
Format : AVI
Format/Info : Audio Video Interleave
File size : 1.46 GiB
Duration : 1h 59mn
Overall bit rate : 1 755 Kbps
Writing application : VirtualDubMod 1.5.10.2 (build 2540/release)
Writing library : VirtualDubMod build 2540/release
Video
ID : 0
Format : MPEG-4 Visual
Codec ID : XVID
Codec ID/Hint : XviD
Duration : 1h 59mn
Bit rate : 1 484 Kbps
Width : 720 pixels
Height : 304 pixels
Display aspect ratio : 2.35:1
Frame rate : 23.976 fps
Color space : YUV
Chroma subsampling : 4:2:0
Compression mode : Lossy
Bits/(Pixel*Frame) : 0.283
Stream size : 1.23 GiB (85%)
Audio
ID : 1
Format : AC-3
Format/Info : Audio Coding 3
Codec ID : 2000
Duration : 1h 58mn
Bit rate mode : Constant
Bit rate : 192 Kbps
Channel(s) : 2 channels
Sampling rate : 48.0 KHz
Compression mode : Lossy
Stream size : 163 MiB (11%)
Alignment : Aligned on interleaves

Скриншоты





Последний раз редактировалось: Behzod5555 (2015-07-31 15:01), всего редактировалось 8 раз(а)

Создавать темы 25-Июл-2015 12:56

[Профиль]  [ЛС] 

Mixer City

Стаж: 6 лет 11 месяцев

Сообщений: 754

Симпатии: 63

Behzod5555, постер и скрины (по инструкции: https://tas-ix.net/viewtopic.php?t=41311) залить нужно в тас-икс, например на img.uz...

Создавать темы 25-Июл-2015 14:06

[Профиль]  [ЛС] 

Behzod5555 ®

Стаж: 2 года 4 месяца

Сообщений: 21

Симпатии: 55

Mixer City помоему всё в порядки

Создавать темы 31-Июл-2015 13:45

[Профиль]  [ЛС] 
Показать сообщения:    
Ответить на тему

Текущее время: 15-Дек 17:24

Часовой пояс: UTC + 5



Вы не можете начинать темы
Вы не можете отвечать на сообщения
Вы не можете редактировать свои сообщения
Вы не можете удалять свои сообщения
Вы не можете голосовать в опросах
Вы не можете прикреплять файлы к сообщениям
Вы не можете скачивать файлы