Психопаспорт 2 / Psycho-Pass 2 (Сиотани Наоёси) [TV] [Без хардсаба] [01-11 из 11] [RUS(ext),JAP+SUB] [2014г., триллер, фантастика BDRip] [720p]

Ответить на тему
 

SoluSoull ®

Стаж: 2 года 7 месяцев

Сообщений: 379

Симпатии: 452

Psycho-Pass 2
Психопаспорт 2-Производство: Япония
Год выпуска: 2014
Жанр: триллер, фантастика
Тип: ТВ (11 эп.), 25 мин.-Перевод:
Озвучка от Zendos & Eladiel (onibaku)
Субтитры от AleX_MytH, Evafan Satin & SeeR (полные/вспомогательные)-Режиссёр: Сиотани Наоёси
Автор оригинала: Кумагай Дзюн
Студия: Tatsunoko-Описание: Профилактика – основа стабильного общества, а уж профилактика преступлений в очередном мире мрачного будущего поставлена на вполне научную основу. Каждому жителю вживлен прибор, передающий показатели психического здоровья, и если «криминальный индекс» зашкаливает, значит, индивидуума пора лечить, часто свинцовыми пилюлями. Вердикт выносят машины, адвокатов нет, остается только привести приговор в исполнение. Но кто занимается столь грязной и опасной работой? Да такие же потенциальные преступники, только выбравшие правильную сторону и разряжающие напряжение на службе государству. А как еще – ведь овцы на волков не охотятся!
При трагических обстоятельствах узнав об истинной природе Сивиллы, инспектор Аканэ Цунэмори принимает решение подчиниться системе, искренне веря, что в конце концов человечность и правопорядок смогут сосуществовать в гармонии. После дела Макишимы и исчезновения Когами суматоха в Департаменте утихла, и город вернулся к прежней размеренно управляемой жизни. Инспектор Цунэмори теперь — член нового подразделения полиции, а преследование и задержание преступников для нее отныне привычное дело. Казалось бы, жизнь вернулась в свою колею, но Аканэ пока не подозревает, что скоро она столкнется с настоящим чудовищем, которое сотрясет Систему до самого ее основания...-Качество: BDRip | Формат: mkv
Тип видео: без хардсаба
Видео: x264 (Hi10p), 1280x720, ~4100 Kbps, 23.976 fps
Аудио RUS: AС3, 48000 Hz, ~192 Kbps, 2ch
Аудио JAP: Vorbis, 48000 Hz, ~256 Kbps, 2ch-

Скриншоты


MI

General
Unique ID : 173390748954379661745385528896296431683 (0x8271D7F2D56802EC8284AB7BF289B043)
Complete name : F:\[RAZNEW]\[RUS(ext)]\Psycho-pass 2 [BD] [720p]\[Winter] Psycho-Pass 2 01 [BDrip 1280x720 x264 Vorbis].mkv
Format : Matroska
Format version : Version 2
File size : 714 MiB
Duration : 22mn 22s
Overall bit rate mode : Variable
Overall bit rate : 4 464 Kbps
Encoded date : UTC 2014-12-20 15:26:53
Writing application : mkvmerge v2.9.8 ('C'est le bon') built on Aug 13 2009 12:49:06
Writing library : libebml v0.7.7 + libmatroska v0.8.1
Video
ID : 1
Format : AVC
Format/Info : Advanced Video Codec
Format profile : High [email protected]
Format settings, CABAC : Yes
Format settings, ReFrames : 9 frames
Codec ID : V_MPEG4/ISO/AVC
Duration : 22mn 22s
Bit rate : 4 120 Kbps
Width : 1 280 pixels
Height : 720 pixels
Display aspect ratio : 16:9
Frame rate mode : Constant
Frame rate : 23.976 fps
Color space : YUV
Chroma subsampling : 4:2:0
Bit depth : 10 bits
Scan type : Progressive
Bits/(Pixel*Frame) : 0.186
Stream size : 659 MiB (92%)
Writing library : x264 core 132 r2309 3b1f1f7
Encoding settings : cabac=1 / ref=9 / deblock=1:-2:-2 / analyse=0x3:0x133 / me=umh / subme=9 / psy=1 / psy_rd=0.90:0.00 / mixed_ref=1 / me_range=24 / chroma_me=1 / trellis=2 / 8x8dct=1 / cqm=0 / deadzone=21,11 / fast_pskip=1 / chroma_qp_offset=-2 / threads=12 / lookahead_threads=2 / sliced_threads=0 / nr=0 / decimate=0 / interlaced=0 / bluray_compat=0 / constrained_intra=0 / bframes=8 / b_pyramid=2 / b_adapt=2 / b_bias=0 / direct=1 / weightb=1 / open_gop=0 / weightp=2 / keyint=250 / keyint_min=23 / scenecut=40 / intra_refresh=0 / rc=crf / mbtree=0 / crf=15.7 / qcomp=0.70 / qpmin=9 / qpmax=40 / qpstep=4 / ip_ratio=1.40 / pb_ratio=1.30 / aq=1:0.90
Default : No
Forced : No
Audio
ID : 2
Format : Vorbis
Format settings, Floor : 1
Codec ID : A_VORBIS
Duration : 22mn 22s
Bit rate mode : Variable
Bit rate : 256 Kbps
Channel(s) : 2 channels
Sampling rate : 48.0 KHz
Compression mode : Lossy
Stream size : 41.0 MiB (6%)
Writing library : libVorbis (Schaufenugget) (20101101 (Schaufenugget))
Language : Japanese
Default : Yes
Forced : No

Создавать темы 25-Июл-2015 13:33

[Профиль]  [ЛС] 
Показать сообщения:    
Ответить на тему

Текущее время: 24-Окт 09:15

Часовой пояс: UTC + 5



Вы не можете начинать темы
Вы не можете отвечать на сообщения
Вы не можете редактировать свои сообщения
Вы не можете удалять свои сообщения
Вы не можете голосовать в опросах
Вы не можете прикреплять файлы к сообщениям
Вы не можете скачивать файлы