Форсаж 7 / Furious 7 (Джеймс Ван) [2015, США, боевик, триллер, криминал, BDRip] [Расширенная версия] (Dub : [iTunes]) (Original Eng)

Ответить на тему
 

FireHowler ®

Стаж: 4 года 4 месяца

Сообщений: 270

Симпатии: 153

Форсаж 7 / Furious 7 / Расширенная версия
Страна: США
Жанр: боевик, триллер, криминал
Год выпуска: 2015
Продолжительность: 02:19:55
Перевод: Профессиональный (дублированный) Доп. инфо о переводе [iTunes]
Cубтитры: нет
Оригинальная аудиодорожка: английский
Режиссер: Джеймс Ван
В ролях: Вин Дизель, Пол Уокер, Дуэйн Джонсон, Джейсон Стэйтем, Мишель Родригес, Джордана Брюстер, Тайриз Гибсон, Лудакрис, Эльза Патаки, Лукас Блэк
Описание: Они покорили Токио и Рио, Лос-Анджелес и Лондон. Но мир больше не играет по их правилам. Зной арабских пустынь, неприлично высокие небоскребы, миллионы долларов на колесах и очень, очень знаменитый злодей. Скорость не знает границ.
Примечание: Расширенная версия длинее на 2 минут (гонки и драки), пару фраз без перевода.
Качество видео: BDRip
Формат видео: MKV
Видео: MPEG-4 AVC, 8500 Кбит/с, 1920x800
Аудио: Русский (AC3, 6 ch, 384 Кбит/с)
Аудио 2: English (DTS, 6 ch, 1510 Кбит/с)

MediaInfo

General
Unique ID : 250907051636722339657636410858242232254 (0xBCC2F0BE167221458E09D19D583ECFBE)
Complete name : D:ТорентыFurious.Seven.2015.EXTENDED.RGBM.1080p.BluRay.x264.mkv
Format : Matroska
Format version : Version 4 / Version 2
File size : 10.2 GiB
Duration : 2h 19mn
Overall bit rate : 10.4 Mbps
Movie name : -=R.G.Bee-Media=-
Encoded date : UTC 2015-07-22 09:09:34
Writing application : mkvmerge v8.2.0 ('World of Adventure') 64bit
Writing library : libebml v1.3.1 + libmatroska v1.4.2
Video
ID : 1
Format : AVC
Format/Info : Advanced Video Codec
Format profile : [email protected]
Format settings, CABAC : Yes
Format settings, ReFrames : 5 frames
Codec ID : V_MPEG4/ISO/AVC
Duration : 2h 19mn
Bit rate : 8 554 Kbps
Width : 1 920 pixels
Height : 800 pixels
Display aspect ratio : 2.40:1
Frame rate : 23.976 fps
Color space : YUV
Chroma subsampling : 4:2:0
Bit depth : 8 bits
Scan type : Progressive
Bits/(Pixel*Frame) : 0.232
Stream size : 8.15 GiB (80%)
Writing library : x264 core 146 r2538 121396c
Encoding settings : cabac=1 / ref=5 / deblock=1:0:0 / analyse=0x3:0x133 / me=umh / subme=7 / psy=1 / psy_rd=1.00:0.00 / mixed_ref=1 / me_range=16 / chroma_me=1 / trellis=1 / 8x8dct=1 / cqm=0 / deadzone=21,11 / fast_pskip=0 / chroma_qp_offset=-2 / threads=60 / lookahead_threads=6 / sliced_threads=0 / nr=0 / decimate=1 / interlaced=0 / bluray_compat=0 / constrained_intra=0 / bframes=3 / b_pyramid=2 / b_adapt=1 / b_bias=0 / direct=1 / weightb=1 / open_gop=0 / weightp=2 / keyint=250 / keyint_min=23 / scenecut=40 / intra_refresh=0 / rc_lookahead=40 / rc=2pass / mbtree=1 / bitrate=8554 / ratetol=1.0 / qcomp=0.60 / qpmin=0 / qpmax=69 / qpstep=4 / cplxblur=20.0 / qblur=0.5 / ip_ratio=1.40 / aq=1:1.00
Language : English
Default : Yes
Forced : No
Audio #1
ID : 2
Format : AC-3
Format/Info : Audio Coding 3
Mode extension : CM (complete main)
Codec ID : A_AC3
Duration : 2h 19mn
Bit rate mode : Constant
Bit rate : 384 Kbps
Channel(s) : 6 channels
Channel positions : Front: L C R, Side: L R, LFE
Sampling rate : 48.0 KHz
Bit depth : 16 bits
Compression mode : Lossy
Stream size : 384 MiB (4%)
Language : Russian
Default : Yes
Forced : No
Audio #2
ID : 3
Format : DTS
Format/Info : Digital Theater Systems
Codec ID : A_DTS
Duration : 2h 19mn
Bit rate mode : Constant
Bit rate : 1 510 Kbps
Channel(s) : 6 channels
Channel positions : Front: L C R, Side: L R, LFE
Sampling rate : 48.0 KHz
Bit depth : 24 bits
Compression mode : Lossy
Stream size : 1.48 GiB (14%)
Language : English
Default : No
Forced : No
Menu
00:00:00.000 : en:00:00:00.000
00:04:39.946 : en:00:04:39.946
00:11:29.480 : en:00:11:29.480
00:16:39.290 : en:00:16:39.290
00:25:54.052 : en:00:25:54.052
00:33:43.897 : en:00:33:43.897
00:41:44.585 : en:00:41:44.585
00:46:41.006 : en:00:46:41.006
00:52:10.711 : en:00:52:10.711
01:02:31.414 : en:01:02:31.414
01:06:16.681 : en:01:06:16.681
01:14:16.869 : en:01:14:16.869
01:22:34.032 : en:01:22:34.032
01:33:21.137 : en:01:33:21.137
01:38:27.485 : en:01:38:27.485
01:45:40.084 : en:01:45:40.084
01:53:54.452 : en:01:53:54.452
01:58:31.062 : en:01:58:31.062
02:06:19.864 : en:02:06:19.864
02:11:31.175 : en:02:11:31.175

Скриншоты

Создавать темы 31-Июл-2015 18:28

[Профиль]  [ЛС] 

Топик был перенесен из форума Фильмы за 2015 в форум Зарубежное кино
Mixer City

Создавать темы 31-Июл-2015 19:37

 

Powered by GMC

Стаж: 1 год 11 месяцев

Сообщений: 202

Симпатии: 31

тут золото не помешалобы

Создавать темы 29-Янв-2016 13:51

[Профиль]  [ЛС] 
Показать сообщения:    
Ответить на тему

Текущее время: 21-Сен 22:30

Часовой пояс: UTC + 5



Вы не можете начинать темы
Вы не можете отвечать на сообщения
Вы не можете редактировать свои сообщения
Вы не можете удалять свои сообщения
Вы не можете голосовать в опросах
Вы не можете прикреплять файлы к сообщениям
Вы не можете скачивать файлы