Убрать из друзей / Unfriended (Леван Габриадзе / Levan Gabriadze) [2015, США, ужасы / триллер, WEB-DLRip] (Dub)[iTunes]

Ответить на тему
 

MuRDoC ®

Стаж: 4 года 2 месяца

Сообщений: 3

Симпатии: 11

Убрать из друзей / Unfriended
Страна: США
Жанр: ужасы / триллер
Год выпуска: 2015
Продолжительность: 01:22:01
Перевод: Профессиональный (дублированный)[iTunes]
Cубтитры: нет
Режиссер: Леван Габриадзе / Levan Gabriadze
В ролях: Шелли Хенниг, Моусес Сторм, Рени Олстэд, Уилл Пельтц, Джейкоб Высоцки, Кортни, Хэлверсон, Хезер Соссамэн, Мэттью Борер, Мики Ривер, Кэл Барнс
Описание: Обычный вечер после школы. К скайпу влюбленных Блэр и Митча подключаются друзья — Адам, Джес, Кен и Вэл… и кто-то седьмой с ником Billy227. Все уверены, что это компьютерный глюк, пока неизвестный не начинает им писать. Билли хочет знать, кто выложил в Сеть скандальное видео с их одноклассницей Лорой Барнс, из-за которого девушка покончила с собой. И он готов выяснить это любой ценой. Друзьям кажется, что можно просто выйти из чата, но это только кажется.
Качество видео: WEB-DLRip
Формат видео: AVI
Видео: XviD, 1981 kb/s, 720x400
Аудио: AC3, 384 kb/s (6 ch)

MediaInfo

General
Format : AVI
Format/Info : Audio Video Interleave
File size : 1.4 GiB
Duration : 1h 22mn
Overall bit rate : 2 265 Kbps
Writing application : VirtualDubMod 1.5.10.2 (build 2540/release)
Writing library : VirtualDubMod build 2540/release
Video
ID : 0
Format : MPEG-4 Visual
Codec ID : DIVX
Codec ID/Info : Project Mayo
Codec ID/Hint : DivX 4
Duration : 1h 22mn
Bit rate : 1 782 Kbps
Width : 720 pixels
Height : 400 pixels
Display aspect ratio : 2.35:1
Frame rate : 25.000 fps
Color space : YUV
Chroma subsampling : 4:2:0
Compression mode : Lossy
Bits/(Pixel*Frame) : 0.326
Stream size : 1.1 GiB (79%)
Audio
ID : 1
Format : AC-3
Format/Info : Audio Coding 3
Codec ID : 2000
Duration : 1h 22mn
Bit rate mode : Constant
Bit rate : 384 Kbps
Channel(s) : 2 channels
Sampling rate : 48.0 KHz
Compression mode : Lossy
Stream size : 246 MiB (17%)
Alignment : Aligned on interleaves

Скриншот c названием фильма



Последний раз редактировалось: MuRDoC (2015-07-31 21:14), всего редактировалось 1 раз

Создавать темы 31-Июл-2015 20:20

[Профиль]  [ЛС] 

Rolex

Стаж: 5 лет 8 месяцев

Сообщений: 59

Симпатии: 11

Вопреки ожидание, суперский фильмец

Создавать темы 29-Авг-2015 17:33

[Профиль]  [ЛС] 
Показать сообщения:    
Ответить на тему

Текущее время: 21-Окт 00:45

Часовой пояс: UTC + 5



Вы не можете начинать темы
Вы не можете отвечать на сообщения
Вы не можете редактировать свои сообщения
Вы не можете удалять свои сообщения
Вы не можете голосовать в опросах
Вы не можете прикреплять файлы к сообщениям
Вы не можете скачивать файлы