Пробуждающая совесть / Skammerens datter (Кеннет Кайнц) [2015, Дания, Nepenthe Film, Приключения, фэнтези, BDRip] (VO : [Lord32x])

Ответить на тему
 

Behzod5555 ®

Стаж: 2 года 2 месяца

Сообщений: 21

Симпатии: 55

Пробуждающая совесть / Skammerens datter-- Страна: Дания, Nepenthe Film--Жанр: Приключения, фэнтези--Год выпуска: 2015--Продолжительность: 01:32:14--Перевод: Одноголосый закадровый Доп. инфо о переводе [Lord32x]--Режиссер: Кеннет Кайнц--В ролях: Якоб Офтебро, Эллан Хайд, Мария Бонневи, Сёрен Маллинг, Олаф Йоханнессен, Стина Экблад, Петер Плаугборг, Лаура Бро, Роланд Мюллер, Йоуханн Г. Йоуханнссон--Описание: Дина унаследовала от матери сверхъестественный дар. Она может заглядывать в души людей, заставляя тех испытывать стыд за свои поступки. Когда единственного наследника престола обвинили в убийстве венценосной семьи, мать девочки обманом завлекают в замок, чтобы заставить обвиняемого сознаться в преступлении. Та отказывается использовать свою силу во зло и попадает в заточение. Теперь Дине предстоит раскрыть правду, попав в эпицентр борьбы за власть и подвергнув опасности собственную жизнь. В фэнтезийном мире Средневековья, где есть место драконам и настоящей магии, девочку и её семью ждут приключения и справедливая цель — утвердить на престоле законного наследника.--Качество видео: BDRip
Формат видео: AVI--Видео: XviD, 1879 Кбит/с, 720x304
Аудио: АС3, 6 ch, 384 Кбит/с--

MediaInfo

General
Format : AVI
Format/Info : Audio Video Interleave
File size : 1.46 GiB
Duration : 1h 32mn
Overall bit rate : 2 273 Kbps
Writing application : VirtualDubMod 1.5.10.3 | www.virtualdub-fr.org || (build 2550/release)
Writing library : VirtualDubMod build 2550/release
Video
ID : 0
Format : MPEG-4 Visual
Codec ID : XVID
Codec ID/Hint : XviD
Duration : 1h 32mn
Bit rate : 1 790 Kbps
Width : 720 pixels
Height : 304 pixels
Display aspect ratio : 2.35:1
Frame rate : 25.000 fps
Color space : YUV
Chroma subsampling : 4:2:0
Compression mode : Lossy
Bits/(Pixel*Frame) : 0.327
Stream size : 1.15 GiB (79%)
Audio
ID : 1
Format : AC-3
Format/Info : Audio Coding 3
Codec ID : 2000
Duration : 1h 32mn
Bit rate mode : Constant
Bit rate : 384 Kbps
Channel(s) : 6 channels
Sampling rate : 48.0 KHz
Compression mode : Lossy
Stream size : 253 MiB (17%)
Alignment : Aligned on interleaves

Скриншот c названием фильма

Скриншоты




Создавать темы 01-Авг-2015 12:49

[Профиль]  [ЛС] 
Показать сообщения:    
Ответить на тему

Текущее время: 20-Окт 15:50

Часовой пояс: UTC + 5



Вы не можете начинать темы
Вы не можете отвечать на сообщения
Вы не можете редактировать свои сообщения
Вы не можете удалять свои сообщения
Вы не можете голосовать в опросах
Вы не можете прикреплять файлы к сообщениям
Вы не можете скачивать файлы