Траур / The Mourning (Марк Клебанофф) [2015, США, триллер, драма, детектив, BDRip] (DVO : [2D])

Ответить на тему
 

Behzod5555 ®

Стаж: 2 года

Сообщений: 21

Симпатии: 55

Траур / The Mourning-- Страна: США-Жанр: триллер, драма, детектив-Год выпуска: 2015-Продолжительность: 01:41:38-Перевод: Любительский (двухголосый закадровый) Доп. инфо о переводе [2D]-Режиссер: Марк Клебанофф-
В ролях: Майкл Рене Уолтон, Луис Мэндилор, Доминик Суэйн, Сэлли МакДональд, Кинга Филиппс, Ларри Хэнкин, Питер Добсон, Боб Спиллман--Описание: Эрон, которого считают погибшим на первой войне в Ираке, неожиданно возвращается домой спустя 20 лет, не постаревшим ни на день. Конспирологи считают, что он был похищен инопланетянами и не останется в городе надолго...--Качество видео: BDRip
Формат видео: AVI--Видео: XviD, 1839 kb/s, 720x288
Аудио: АС3, 2 ch, 192 Кбит/с--

MediaInfo

General
Format : AVI
Format/Info : Audio Video Interleave
File size : 1.45 GiB
Duration : 1h 41mn
Overall bit rate : 2 040 Kbps
Video
ID : 0
Format : MPEG-4 Visual
Codec ID : XVID
Codec ID/Hint : XviD
Duration : 1h 41mn
Bit rate : 1 759 Kbps
Width : 720 pixels
Height : 288 pixels
Display aspect ratio : 2.500
Frame rate : 23.976 fps
Color space : YUV
Chroma subsampling : 4:2:0
Compression mode : Lossy
Bits/(Pixel*Frame) : 0.354
Stream size : 1.25 GiB (86%)
Audio
ID : 1
Format : MPEG Audio
Codec ID : 55
Codec ID/Hint : MP3
Duration : 1h 41mn
Bit rate : 192 Kbps
Channel(s) : 2 channels
Sampling rate : 48.0 KHz
Compression mode : Lossy
Stream size : 140 MiB (9%)
Alignment : Aligned on interleaves

Скриншот c названием фильма

Скриншоты



Создавать темы 01-Авг-2015 14:22

[Профиль]  [ЛС] 

dilshod5254

Стаж: 6 лет 4 месяца

Сообщений: 106

Симпатии: 14

если в постере голая баба все нормально но вот голый мужик как то не так))

Создавать темы 19-Авг-2015 19:11

[Профиль]  [ЛС] 
Показать сообщения:    
Ответить на тему

Текущее время: 23-Авг 09:27

Часовой пояс: UTC + 5



Вы не можете начинать темы
Вы не можете отвечать на сообщения
Вы не можете редактировать свои сообщения
Вы не можете удалять свои сообщения
Вы не можете голосовать в опросах
Вы не можете прикреплять файлы к сообщениям
Вы не можете скачивать файлы