Охота на индюшек / Turkey Shoot (Джон Хьюит) [2014, Австралия, Боевик, BDRip] (Dub : (Хихикающий доктор))

Ответить на тему
 

Behzod5555 ®

Стаж: 2 года 4 месяца

Сообщений: 21

Симпатии: 55

Охота на индюшек / Turkey Shoot-- Страна: Австралия--Жанр: Боевик--Год выпуска: 2014--Продолжительность: 01:30:02--Перевод: Любительский (дублированный) Доп. инфо о переводе (Хихикающий доктор)--Режиссер: Джон Хьюит--В ролях: Доминик Пёрселл, Вива Бьянка, Роберт Тейлор, Белинда МакКлори, Николас Хэммонд, Кармен Дункан, Роджер Уорд, Сюзанна МакДональд, Стефен Филлипс--Описание: В результате шокирующих убийств гражданских в зоне боевых действий, Рика Тайлера приговаривают к заключению и отправляют гнить в тюрьму для военных. Там ему предлагают принять участие в игре, в роли дичи. Ставка в игре, его жизнь или свобода.--Качество видео: BDRip
Формат видео: AVI--Видео: XviD, 1726 Кбит/с, 720х400
Аудио: AC3, 6 ch, 448 Кбит/с--

MediaInfo

General
Format : AVI
Format/Info : Audio Video Interleave
File size : 1.37 GiB
Duration : 1h 30mn
Overall bit rate : 2 183 Kbps
Writing application : VirtualDubMod 1.5.10.2 (build 2540/release)
Writing library : VirtualDubMod build 2540/release
Copyright : ExKinoRay
Video
ID : 0
Format : MPEG-4 Visual
Codec ID : XVID
Codec ID/Hint : XviD
Duration : 1h 30mn
Bit rate : 1 640 Kbps
Width : 720 pixels
Height : 400 pixels
Display aspect ratio : 16:9
Frame rate : 23.976 fps
Color space : YUV
Chroma subsampling : 4:2:0
Compression mode : Lossy
Bits/(Pixel*Frame) : 0.238
Stream size : 1.03 GiB (75%)
Audio
ID : 1
Format : AC-3
Format/Info : Audio Coding 3
Codec ID : 2000
Duration : 1h 30mn
Bit rate mode : Constant
Bit rate : 448 Kbps
Channel(s) : 6 channels
Sampling rate : 48.0 KHz
Compression mode : Lossy
Stream size : 288 MiB (21%)
Alignment : Aligned on interleaves
Title : xixidok

Скриншоты




Создавать темы 01-Авг-2015 14:52

[Профиль]  [ЛС] 
Показать сообщения:    
Ответить на тему

Текущее время: 12-Дек 11:32

Часовой пояс: UTC + 5



Вы не можете начинать темы
Вы не можете отвечать на сообщения
Вы не можете редактировать свои сообщения
Вы не можете удалять свои сообщения
Вы не можете голосовать в опросах
Вы не можете прикреплять файлы к сообщениям
Вы не можете скачивать файлы