Красотки в бегах / Hot Pursuit (Энн Флетчер/Anne Fletcher) [2015, США, боевик, комедия, криминал, HDRip] (Dub : Чистый звук,[Line]) (Original Eng)

Ответить на тему
 

Сергей74 ®

Стаж: 2 года 8 месяцев

Сообщений: 211

Симпатии: 293

Красотки в бегах / Hot Pursuit
Страна: США
Жанр: боевик, комедия, криминал
Год выпуска: 2015
Продолжительность: 01:27:31
Перевод: Профессиональный (дублированный).Чистый звук
Cубтитры: нет
Оригинальная аудиодорожка: английский
Режиссер: Энн Флетчер/Anne Fletcher
В ролях: Риз Уизерспун,София Вергара,Мэттью Дель Негро,Майкл Мосли,Роберт Казински,Ричард Т. Джонс,Бенни Нивз,Майкл Рэй Эскамиллья,Хоакин Косио,Джон Кэрролл Линч
Описание:История об офицере полиции и заключенной, которые волей судьбы оказываются в бегах в Техасе.
..На фильм сыпется множество негативной критики со всех сторон, а что вы хотели? Так бывает практически с каждой американской комедией. Даже трейлер этого фильма не несет в себе ничего толкового: непонятные вопли, суета — бред. Порадовал только один смешной момент и трек Ники Минаж, Джесси Джей и Арианы Гранде — Bang Bang. Но так как я люблю комедии про «копов», меня это не остановило.
Пошли в кино с друзьями просто посмеяться, и не прогадали! Фильм имеет отличную сюжетную линию, ни один из главных поворотных моментов практически не возможно предугадать. Экшен сцены на высоте. Я соглашусь, что присутствует американский юмор, но абсолютно не типичный! У меня ни разу не возникла мысль о том, что где-то я это уже слышал. Ни на одной шутке я не сидел с бесстрастным лицом. Все кто были в зале поголовно, ну если не смеялись, то улыбка ни сходила с физиономий.
Под роли очень хорошо подобраны актрисы. Им удалось передать все суть своих героинь. Дерзкая, сексуальная, очаровательная леди с характером София Вергара и мисс педантичность — Риз Уизерспун. Даже русский дубляж был совершенно к месту. Эти две дамы идеально смотрелись вместе.
Также с этим фильмом можно провести параллель с комедией «Копы в юбках», где главные героини — полицейские.
Советую этот фильм для просмотра в компании!
10 из 10

Рецензия от Егор Зайцев http://www.kinopoisk.ru/film/770625/
Релиз от: Электричка
 
Качество видео: HDRip
Формат видео: AVI
Видео: XviD, 1852 Kb/s, 720x304, 23.976fps
Аудио: AC3, 128 Kb/s, 48KHz, (2 ch) (Русский)
Аудио 2: AC3, 384 Kb/s, 48KHz, (6 ch) (Английский)

Доп.ИНФО

MediaInfo

Полное имя :Hot.Pursuit.2015.D.HDRip.nnm-club.avi
Формат : AVI
Формат/Информация : Audio Video Interleave
Размер файла : 1,45 Гбайт
Продолжительность : 1 ч. 27 м.
Общий поток : 2380 Кбит/сек
Название фильма : Hot.Pursuit.2015.D.HDRip.ELEKTRI4KA.uniongang.tv
Режиссёр : Carl Gaus
Программа кодирования : VirtualDubMod 1.5.10.3 || (build 2550/release)
Правообладатель : UNIONGANG&RUSTORRENTS
Видео
Идентификатор : 0
Формат : MPEG-4 Visual
Профиль формата : Advanced [email protected]
Параметр BVOP формата : 2
Параметр QPel формата : Нет
Параметр GMC формата : Без точки перехода
Параметр матрицы формата : Default (MPEG)
Идентификатор кодека : XVID
Идентификатор кодека/Подсказка : XviD
Продолжительность : 1 ч. 27 м.
Битрейт : 1854 Кбит/сек
Ширина : 720 пикселей
Высота : 304 пикселя
Соотношение сторон : 2,35:1
Частота кадров : 23,976 кадра/сек
Цветовое пространство : YUV
Субдискретизация насыщенности : 4:2:0
Битовая глубина : 8 бит
Тип развёртки : Прогрессивная
Метод сжатия : С потерями
Бит/(Пиксели*Кадры) : 0.353
Размер потока : 1,13 Гбайт (78%)
Библиотека кодирования : XviD 1.2.1 (UTC 2008-12-04)
Аудио #1
Идентификатор : 1
Формат : AC-3
Формат/Информация : Audio Coding 3
Расширение режима : CM (complete main)
Параметр Endianness формата : Big
Идентификатор кодека : 2000
Продолжительность : 1 ч. 27 м.
Вид битрейта : Постоянный
Битрейт : 128 Кбит/сек
Каналы : 2 канала
Расположение каналов : Front: L R
Частота : 48,0 КГц
Битовая глубина : 16 бит
Метод сжатия : С потерями
Размер потока : 80,1 Мбайт (5%)
Выравнивание : Разделение по промежуткам
Продолжительность промежутка : 42 мс. (1,00 видеокадр)
Время предзагрузки промежутка : 500 мс.
Аудио #2
Идентификатор : 2
Формат : AC-3
Формат/Информация : Audio Coding 3
Расширение режима : CM (complete main)
Параметр Endianness формата : Big
Идентификатор кодека : 2000
Продолжительность : 1 ч. 27 м.
Вид битрейта : Постоянный
Битрейт : 384 Кбит/сек
Каналы : 6 каналов
Расположение каналов : Front: L C R, Side: L R, LFE
Частота : 48,0 КГц
Битовая глубина : 16 бит
Метод сжатия : С потерями
Размер потока : 240 Мбайт (16%)
Выравнивание : Разделение по промежуткам
Продолжительность промежутка : 42 мс. (1,00 видеокадр)
Время предзагрузки промежутка : 500 мс.

Скриншот c названием фильма

Скриншоты





Последний раз редактировалось: Сергей74 (2015-08-02 10:39), всего редактировалось 4 раз(а)

Создавать темы 01-Авг-2015 22:46

[Профиль]  [ЛС] 

Сергей74 ®

Стаж: 2 года 8 месяцев

Сообщений: 211

Симпатии: 293

aa


Последний раз редактировалось: Сергей74 (2015-09-14 01:53), всего редактировалось 2 раз(а)

Создавать темы 01-Авг-2015 23:02

[Профиль]  [ЛС] 

ulkiora5

Стаж: 4 года 6 месяцев

Сообщений: 53

Симпатии: 25

такая муть, даже до конца не осилил, рейтинг завысили

Создавать темы 04-Авг-2015 08:11

[Профиль]  [ЛС] 
Показать сообщения:    
Ответить на тему

Текущее время: 13-Дек 10:38

Часовой пояс: UTC + 5



Вы не можете начинать темы
Вы не можете отвечать на сообщения
Вы не можете редактировать свои сообщения
Вы не можете удалять свои сообщения
Вы не можете голосовать в опросах
Вы не можете прикреплять файлы к сообщениям
Вы не можете скачивать файлы