Как заниматься любовью по-английски / How to Make Love Like an Englishman (Том Вон) [2014, США, мелодрама, комедия, WEB-DLRip] (DVO : [Lucky Strike])

Ответить на тему
 

Сергей74 ®

Стаж: 2 года 5 месяцев

Сообщений: 211

Симпатии: 293

Как заниматься любовью по-английски / How to Make Love Like an Englishman
Страна: США
Жанр: мелодрама, комедия
Год выпуска: 2014
Продолжительность: 01:39:20
Перевод: Любительский (двухголосый закадровый) [Lucky Strike]
Cубтитры: нет
Режиссер: Том Вон/Tom Vaughan
В ролях: Пирс Броснан, Сальма Хайек, Джессика Альба, Малкольм МакДауэлл, Дункан Джойнер, Бен МакКензи, Меррин Данги, Фред Меламед, Иван Сергей, Ломбардо Бойяр
Описание: Сюжет фильма вращается вокруг профессора Кембриджского университета, избравшего в качестве своего девиза изречение уайльдовского лорда Генри из «Портрета Дориана Грея»: «Единственный способ отделаться от искушения — уступить ему». Но однажды в жизни героя появляется молодая женщина, ради которой он решает пересмотреть личные приоритеты и подавить гедонистические наклонности. И все бы хорошо, вот только сводная сестра новой возлюбленной профессора ждет от него ребенка.

Качество видео:WEB-DLRip
Формат видео: AVI
Видео: XviD,1960 kb/s, 720x304
Аудио: AC3, 128 kb/s (2 ch)
 

MediaInfo

Complete name : D:\ФИЛЬМЫ\Kak.3animatsya.1uboviu.5o.Angliyski.2014.L2.WEB-DLRip.avi
Format : AVI
Format/Info : Audio Video Interleave
File size : 1.46 GiB
Duration : 1h 39mn
Overall bit rate : 2 097 Kbps
Movie name : Kak.3animatsya.1uboviu.5o.Angliyski.2014.L2.WEB-DLRip.ELEKTRI4KA.uniongang.tv
Director : Carl Gaus
Writing application : VirtualDubMod 1.5.10.3 | www.virtualdub-fr.org || (build 2550/release)
Copyright : UNIONGANG&RUSTORRENTS
Video
ID : 0
Format : MPEG-4 Visual
Format profile : Advanced [email protected]
Format settings, BVOP : 2
Format settings, QPel : No
Format settings, GMC : No warppoints
Format settings, Matrix : Default (MPEG)
Codec ID : XVID
Codec ID/Hint : XviD
Duration : 1h 39mn
Bit rate : 1 960 Kbps
Width : 720 pixels
Height : 304 pixels
Display aspect ratio : 2.35:1
Frame rate : 24.000 fps
Color space : YUV
Chroma subsampling : 4:2:0
Bit depth : 8 bits
Scan type : Progressive
Compression mode : Lossy
Bits/(Pixel*Frame) : 0.373
Stream size : 1.36 GiB (93%)
Writing library : XviD 1.2.1 (UTC 2008-12-04)
Audio
ID : 1
Format : AC-3
Format/Info : Audio Coding 3
Mode extension : CM (complete main)
Format settings, Endianness : Big
Codec ID : 2000
Duration : 1h 39mn
Bit rate mode : Constant
Bit rate : 128 Kbps
Channel(s) : 2 channels
Channel positions : Front: L R
Sampling rate : 48.0 KHz
Compression mode : Lossy
Stream size : 90.9 MiB (6%)
Alignment : Split accross interleaves
Interleave, duration : 42 ms (1.00 video frame)
Interleave, preload duratio : 500 ms

Доп. ИНФО

Скриншот c названием фильма

Скриншоты






Последний раз редактировалось: Сергей74 (2015-08-03 02:20), всего редактировалось 6 раз(а)

Создавать темы 03-Авг-2015 01:34

[Профиль]  [ЛС] 

Сергей74 ®

Стаж: 2 года 5 месяцев

Сообщений: 211

Симпатии: 293

aa

Создавать темы 03-Авг-2015 03:29

[Профиль]  [ЛС] 

Рамиль

Стаж: 7 лет 4 месяца

Сообщений: 61

Симпатии: 1

Народ!!!! Может раздавать начнете???

Создавать темы 05-Дек-2015 20:32

[Профиль]  [ЛС] 
Показать сообщения:    
Ответить на тему

Текущее время: 23-Сен 08:54

Часовой пояс: UTC + 5



Вы не можете начинать темы
Вы не можете отвечать на сообщения
Вы не можете редактировать свои сообщения
Вы не можете удалять свои сообщения
Вы не можете голосовать в опросах
Вы не можете прикреплять файлы к сообщениям
Вы не можете скачивать файлы