Мелисса: Интимный дневник / Melissa P. (Лука Гуаданьино) [2005, Италия, Испания, Bess Films, Pentagrama Films S.L., Драма, Экранизация, DVDRip] (MVO)

Ответить на тему
 

Сергей74 ®

Стаж: 2 года 8 месяцев

Сообщений: 211

Симпатии: 293

Мелисса: Интимный дневник / Melissa P.
Страна: Италия, Испания, Bess Films, Pentagrama Films S.L.
Жанр: Драма, Экранизация
Год выпуска: 2005
Продолжительность: 01:33:52
Перевод: Профессиональный (многоголосый закадровый)
Cубтитры: нет
Режиссер: Лука Гуаданьино
Возраст: Зрителям,достигшим 18 лет
В ролях: Мария Вальверде, Карло Антонелли, Фабриция Сачи, Мария Тереза Багардо, Пьер Джорджио Беллочио, Джеральдин Чаплин, Элио Джермано, Марчелло Маццарелла
Описание: Несколько лет назад в Италии был опубликован роман под замысловатым заглавием «Расчеши волосы сто раз перед сном». И мгновенно стал национальным бестселлером, несмотря на странное название, отсутствие мощной рекламы и никому не известное имя на обложке — Мелисса Панарелло. А все потому, что автором оказалась девушка из Сицилии, взявшая за основу книги свои интимные дневники.Нежные, трогательные и чувственные, скандальные, но поэтичные — откровения Мелиссы о собственном превращении из нимфетки в женщину, первых эротических переживаниях и сексуальных опытах произвели настоящий фурор в Европе. И теперь эта поразительная книга обретает новую жизнь — в формате полнометражного кино… Экранизация по произведению Мелиссы Панарелло
Качество видео: DVDRip
Формат видео: MKV
Видео: MPEG-4 AVC, 2000 Кбит/с, 720x384
Аудио: Русский (АС3, 6 ch, 384 Кбит/с)

 

MediaInfo

Complete name : D:\ФИЛЬМЫ\Мелисса - Интимный дневник (Melissa P.).mkv
Format : Matroska
Format version : Version 1
File size : 1.57 GiB
Duration : 1h 33mn
Overall bit rate : 2 387 Kbps
Encoded date : UTC 2008-05-04 05:08:21
Writing application : mkvmerge v2.0.2 ('You're My Flame') built on Feb 21 2007 23:40:55
Writing library : libebml v0.7.7 + libmatroska v0.8.1
Video
ID : 1
Format : AVC
Format/Info : Advanced Video Codec
Format profile : [email protected]
Format settings, CABAC : Yes
Format settings, ReFrames : 8 frames
Codec ID : V_MPEG4/ISO/AVC
Duration : 1h 33mn
Bit rate : 2 000 Kbps
Width : 720 pixels
Height : 384 pixels
Display aspect ratio : 1.85:1
Frame rate mode : Constant
Frame rate : 25.000 fps
Color space : YUV
Chroma subsampling : 4:2:0
Bit depth : 8 bits
Scan type : Progressive
Bits/(Pixel*Frame) : 0.289
Stream size : 1.28 GiB (82%)
Title : MPEG4 Video (H264) 720x384 25.00fps 2000Kbps
Writing library : x264 core 59 r819M 0414d78
Encoding settings : cabac=1 / ref=8 / deblock=1:0:0 / analyse=0x3:0x133 / me=umh / subme=6 / me-prepass=0 / brdo=1 / mixed_ref=1 / me_range=16 / chroma_me=1 / trellis=1 / 8x8dct=1 / cqm=0 / deadzone=21,11 / chroma_qp_offset=0 / threads=3 / nr=0 / decimate=1 / mbaff=0 / bframes=3 / b_pyramid=1 / b_adapt=1 / b_bias=0 / direct=1 / wpredb=1 / bime=1 / keyint=250 / keyint_min=25 / scenecut=40(pre) / rc=2pass / bitrate=2000 / ratetol=1.0 / rceq='blurCplx^(1-qComp)' / qcomp=1.00 / qpmin=10 / qpmax=51 / qpstep=4 / cplxblur=20.0 / qblur=0.5 / ip_ratio=1.40 / pb_ratio=1.30 / aq=2:1.00
Language : Italian
Default : Yes
Forced : No
Audio
ID : 2
Format : AC-3
Format/Info : Audio Coding 3
Mode extension : CM (complete main)
Format settings, Endianness : Big
Codec ID : A_AC3
Duration : 1h 33mn
Bit rate mode : Constant
Bit rate : 384 Kbps
Channel(s) : 6 channels
Channel positions : Front: L C R, Side: L R, LFE
Sampling rate : 48.0 KHz
Compression mode : Lossy
Stream size : 258 MiB (16%)
Title : AC3 3_2ch 384Kbps
Language : Russian
Default : Yes
Forced : No

Скриншоты






Последний раз редактировалось: Сергей74 (2015-08-03 17:05), всего редактировалось 8 раз(а)

Создавать темы 03-Авг-2015 12:57

[Профиль]  [ЛС] 

Сергей74 ®

Стаж: 2 года 8 месяцев

Сообщений: 211

Симпатии: 293

aa


Последний раз редактировалось: Сергей74 (2015-09-14 01:52), всего редактировалось 2 раз(а)

Создавать темы 03-Авг-2015 12:59

[Профиль]  [ЛС] 

Топик был перенесен из форума Фильмы до 2010 в форум HD-AVC
Каротажник

Создавать темы 04-Авг-2015 11:25

 

Боксер

Стаж: 2 года 4 месяца

Сообщений: 54

Симпатии: 34

Сергей74, А как так постер изменяющий сделали?

Создавать темы 05-Авг-2015 14:19

[Профиль]  [ЛС] 

FireHowler

Стаж: 4 года 7 месяцев

Сообщений: 270

Симпатии: 153

Боксер,

Это гифка.

Формат GIF поддерживает анимационные изображения. Они представляют собой последовательность из нескольких статичных кадров, а также информацию о том, сколько времени каждый кадр должен быть показан на экране. Анимацию можно сделать цикличной (англ. loop), тогда вслед за последним кадром начнётся воспроизведение первого кадра и т. д.

Создавать темы 05-Авг-2015 14:45

[Профиль]  [ЛС] 

Сергей74 ®

Стаж: 2 года 8 месяцев

Сообщений: 211

Симпатии: 293

946274Сергей74, А как так постер изменяющий сделали?
В нете много сайтов,которые делают подобное онлайн ... загружаем пару картинок, выбираем с какой периодичностью меняться и д.р параметры (например меняться ..наезд сверху или снизу,или типа жалюзи ) .. и .др и всё... наверняка есть софт..но я не замудрялся..в гугле нашёл сайт..не сохранил к сожалению какой..но поиск с параметрами "гиф анимация онлайн поможет"
во нашёл http://gifovina.ru/ вот здесь пример жалюзи https://tas-ix.net/viewtopic.php?t=108098 ,здесь https://tas-ix.net/viewtopic.php?t=108099 пиксели... пришлось уменьшить т.к наша галерея кушает не больше мега,а img.uz лежит

Создавать темы 06-Авг-2015 02:15

[Профиль]  [ЛС] 

Боксер

Стаж: 2 года 4 месяца

Сообщений: 54

Симпатии: 34

FireHowler, Спасибо за обьяснение.
Сергей74, Спасибо за сайт, Я тоже попробую так сделать.

Создавать темы 08-Авг-2015 18:14

[Профиль]  [ЛС] 

Ar4er

Стаж: 4 года 8 месяцев

Сообщений: 7

Симпатии: 1

дайте скорость

Создавать темы 04-Июл-2016 19:36

[Профиль]  [ЛС] 
Показать сообщения:    
Ответить на тему

Текущее время: 15-Дек 07:49

Часовой пояс: UTC + 5



Вы не можете начинать темы
Вы не можете отвечать на сообщения
Вы не можете редактировать свои сообщения
Вы не можете удалять свои сообщения
Вы не можете голосовать в опросах
Вы не можете прикреплять файлы к сообщениям
Вы не можете скачивать файлы