Боевые свиньи / War Pigs (Райан Литтл) [2015, США, боевик, военный, HDRip] (DVO : [Lucky Strike])

Ответить на тему
 

Behzod5555 ®

Стаж: 2 года 2 месяца

Сообщений: 21

Симпатии: 55

Боевые свиньи / War Pigs-- Страна: США--Жанр: боевик, военный--Год выпуска: 2015--Продолжительность: 01:31:29--Перевод: Любительский (двухголосый) [Lucky Strike]--Режиссер: Райан Литтл--В ролях: Микки Рурк, Дольф Лундгрен, Люк Госс, Райан Келли, Ной Сеган, Чак Лиделл, К.С. Клайд, Джейк Стормоен, Маклейн Нельсон--Описание: Боевые свиньи — спецподразделение, цель которого — уничтожить нацистов там, где они меньше всего ожидают удара.--Качество видео: HDRip
Формат видео: AVI
Видео: AVI, 1882 kb/s, 720x400
Аудио: AC3, 384 kb/s (2 ch)--

MediaInfo

General
Format : AVI
Format/Info : Audio Video Interleave
File size : 1.45 GiB
Duration : 1h 31mn
Overall bit rate : 2 276 Kbps
Movie name : War.Pigs.2015.L2.HDRip.ELEKTRI4KA.uniongang.tv
Director : Carl Gaus
Writing application : VirtualDubMod 1.5.10.3 | www.virtualdub-fr.org || (build 2550/release)
Copyright : UNIONGANG&RUSTORRENTS
Video
ID : 0
Format : MPEG-4 Visual
Codec ID : XVID
Codec ID/Hint : XviD
Duration : 1h 31mn
Bit rate : 1 793 Kbps
Width : 720 pixels
Height : 400 pixels
Display aspect ratio : 16:9
Frame rate : 23.976 fps
Color space : YUV
Chroma subsampling : 4:2:0
Compression mode : Lossy
Bits/(Pixel*Frame) : 0.260
Stream size : 1.15 GiB (79%)
Audio
ID : 1
Format : AC-3
Format/Info : Audio Coding 3
Codec ID : 2000
Duration : 1h 31mn
Bit rate mode : Constant
Bit rate : 384 Kbps
Channel(s) : 2 channels
Sampling rate : 48.0 KHz
Compression mode : Lossy
Stream size : 251 MiB (17%)
Alignment : Aligned on interleaves

Скриншот c названием фильма

Скриншоты




Создавать темы 03-Авг-2015 16:19

[Профиль]  [ЛС] 

elmar

Стаж: 6 лет 9 месяцев

Сообщений: 44

Симпатии: 4

трата времени

Создавать темы 05-Авг-2015 15:45

[Профиль]  [ЛС] 

alcor

Стаж: 2 года 6 месяцев

Сообщений: 45

Симпатии: 8

понятно

Создавать темы 29-Авг-2015 20:54

[Профиль]  [ЛС] 
Показать сообщения:    
Ответить на тему

Текущее время: 19-Окт 01:18

Часовой пояс: UTC + 5



Вы не можете начинать темы
Вы не можете отвечать на сообщения
Вы не можете редактировать свои сообщения
Вы не можете удалять свои сообщения
Вы не можете голосовать в опросах
Вы не можете прикреплять файлы к сообщениям
Вы не можете скачивать файлы