Упс… Ной уплыл! / Ooops! Noah is Gone... (Тоби Генкель, Шон МакКормак) [2015, мультфильм, комедия, приключения, HDRip]

Ответить на тему
 

Behzod5555 ®

Стаж: 2 года 3 месяца

Сообщений: 21

Симпатии: 55

Упс… Ной уплыл!/ Ooops! Noah is Gone...-- Страна:Германия, Бельгия, Люксембург, Ирландия--Жанр: мультфильм, комедия, приключения--Год выпуска: 2015--Продолжительность: 87 мин. / 01:27--Перевод: Любительский (двухголосый) [Lucky Strike]--Режиссер: Тоби Генкель, Шон МакКормак--В ролях: Дермот Магеннис, Каллум Малони, Тара Флинн, Ava Connolly, Пол Тайлак, Алан Стэнфорд, Эйлин Митен, Патрик Фицсимонс, Карла Бекер, Франциска Фриде--Описание:Грядет всемирный потоп, и старина Ной вот-вот отчалит. Самое время для зверей занять свои каюты. Но, увы, повезло не всем — кое-кто фейсконтроль не прошел. Теперь ему придется как следует постараться, чтобы перехитрить судьбу и заскочить на подножку уплывающего ковчега.--Качество видео: HDRip
Формат видео: AVI
Видео: XviD, 1997 Kb/s, 720x384
Аудио:AC3, 256 Kb/s (2 ch)--

MediaInfo

General
Format : AVI
Format/Info : Audio Video Interleave
File size : 1.37 GiB
Duration : 1h 26mn
Overall bit rate : 2 263 Kbps
Movie name : 0oops.Noah.Uplil.2015.L2.HDRip.ELEKTRI4KA.uniongang.tv
Director : Carl Gaus
Writing application : VirtualDubMod 1.5.10.3 | www.virtualdub-fr.org || (build 2550/release)
Copyright : UNIONGANG&RUSTORRENTS
Video
ID : 0
Format : MPEG-4 Visual
Codec ID : XVID
Codec ID/Hint : XviD
Duration : 1h 26mn
Bit rate : 1 909 Kbps
Width : 720 pixels
Height : 384 pixels
Display aspect ratio : 1.85:1
Frame rate : 24.000 fps
Color space : YUV
Chroma subsampling : 4:2:0
Compression mode : Lossy
Bits/(Pixel*Frame) : 0.288
Stream size : 1.15 GiB (84%)
Audio
ID : 1
Format : AC-3
Format/Info : Audio Coding 3
Codec ID : 2000
Duration : 1h 26mn
Bit rate mode : Constant
Bit rate : 256 Kbps
Channel(s) : 2 channels
Sampling rate : 48.0 KHz
Compression mode : Lossy
Stream size : 158 MiB (11%)
Alignment : Aligned on interleaves

Скриншоты



Создавать темы 03-Авг-2015 18:09

[Профиль]  [ЛС] 

Топик был перенесен из форума CamRip, DVDScr и т.п. в форум Мультфильмы
Mixer City

Создавать темы 05-Авг-2015 00:04

 
Показать сообщения:    
Ответить на тему

Текущее время: 18-Ноя 13:37

Часовой пояс: UTC + 5



Вы не можете начинать темы
Вы не можете отвечать на сообщения
Вы не можете редактировать свои сообщения
Вы не можете удалять свои сообщения
Вы не можете голосовать в опросах
Вы не можете прикреплять файлы к сообщениям
Вы не можете скачивать файлы