Скажи / Tell (Дж.М.Р. Люна) [2014, США, Боевик, Драма, Криминал, WEB-DLRip] (MVO : (официальный))

Ответить на тему
 

Сергей74 ®

Стаж: 2 года 7 месяцев

Сообщений: 211

Симпатии: 293

Скажи / Tell
Страна: США
Жанр: Боевик, Драма, Криминал
Год выпуска: 2014
Продолжительность: 01:28:54
Перевод: Профессиональный (многоголосый закадровый) Доп. инфо о переводе (официальный)
Cубтитры: нет
Режиссер: Дж.М.Р. Люна
В ролях: Майло Вентимилья, Кэти Сакхофф, Джейсон Ли, Роберт Патрик, Алан Тьюдик, Джон Майкл Хиггинс, Фэйзон Лав, Оскар Нунез, Питер Рейнерт, Моника Янг
Описание:Мелкому мошеннику Этану Теллу удается сорвать куш в миллион долларов и оставить других с носом. Но полиция ловит его и после отсидки, он решает жить честно. Но его продолжают преследовать коррумпированные полицейские, офицер по досрочному освобождению, участники ограбления, даже жена. У всех один вопрос: «Где деньги?»
Качество видео: WEB-DLRip
Формат видео: AVI
Видео: Xvid, 720x304, ~1999 Кбит/сек
Аудио: AC3, 2 ch, 192 Кбит/сек
 

MediaInfo

Общее
Полное имя : C:Торренты\Скажи.2014.P.WEBDLRip.avi
Формат : AVI
Формат/Информация : Audio Video Interleave
Размер файла : 1,37 Гбайт
Продолжительность : 1 ч. 28 м.
Общий поток : 2200 Кбит/сек
Программа кодирования : VirtualDubMod 1.5.10.2 (build 2540/release)
Библиотека кодирования : VirtualDubMod build 2540/release
Видео
Идентификатор : 0
Формат : MPEG-4 Visual
Профиль формата : Advanced [email protected]
Параметр BVOP формата : 2
Параметр QPel формата : Нет
Параметр GMC формата : Без точки перехода
Параметр матрицы формата : Default (MPEG)
Идентификатор кодека : XVID
Идентификатор кодека/Подсказка : XviD
Продолжительность : 1 ч. 28 м.
Битрейт : 1999 Кбит/сек
Ширина : 720 пикселей
Высота : 304 пикселя
Соотношение сторон : 2,35:1
Частота кадров : 23,976 кадра/сек
Цветовое пространство : YUV
Субдискретизация насыщенности : 4:2:0
Битовая глубина : 8 бит
Тип развёртки : Прогрессивная
Метод сжатия : С потерями
Бит/(Пиксели*Кадры) : 0.381
Размер потока : 1,24 Гбайт (91%)
Библиотека кодирования : XviD 1.2.1 (UTC 2008-12-04)
Аудио
Идентификатор : 1
Формат : AC-3
Формат/Информация : Audio Coding 3
Расширение режима : CM (complete main)
Параметр Endianness формата : Big
Идентификатор кодека : 2000
Продолжительность : 1 ч. 28 м.
Вид битрейта : Постоянный
Битрейт : 192 Кбит/сек
Каналы : 2 канала
Расположение каналов : Front: L R
Частота : 48,0 КГц
Метод сжатия : С потерями
Размер потока : 122 Мбайт (9%)
Выравнивание : Разделение по промежуткам
Продолжительность промежутка : 42 мс. (1,00 видеокадр)
Время предзагрузки промежутка : 500 мс.

Скриншот c названием фильма

Скриншоты




Создавать темы 03-Авг-2015 18:42

[Профиль]  [ЛС] 

Сергей74 ®

Стаж: 2 года 7 месяцев

Сообщений: 211

Симпатии: 293

aa

Создавать темы 03-Авг-2015 18:51

[Профиль]  [ЛС] 
Показать сообщения:    
Ответить на тему

Текущее время: 24-Ноя 08:56

Часовой пояс: UTC + 5



Вы не можете начинать темы
Вы не можете отвечать на сообщения
Вы не можете редактировать свои сообщения
Вы не можете удалять свои сообщения
Вы не можете голосовать в опросах
Вы не можете прикреплять файлы к сообщениям
Вы не можете скачивать файлы