Темные тайны / Dark Places (Жиль Паке-Бреннер) [2015, Франция, Великобритания, США, Cuatro Plus Films, Exclusive Media Group, Триллер, Драма, Детектив, WEB-DLRip] (VO : [А. Матвеев])

Ответить на тему
 

Сергей74 ®

Стаж: 2 года 4 месяца

Сообщений: 211

Симпатии: 293

Темные тайны / Dark Places
Страна: Франция, Великобритания, США, Cuatro Plus Films, Exclusive Media Group
Жанр: Триллер, Драма, Детектив
Год выпуска: 2015
Продолжительность: 01:53:07
Перевод: Одноголосый закадровый (А. Матвеев)
Cубтитры: нет
Режиссер: Жиль Паке-Бреннер
В ролях: Шарлиз Терон, Клои Грэйс Моретц, Стерлинг Джеринс, Николас Холт, Кристина Хендрикс, Кори Столл, Тай Шеридан, Андреа Рот, Шон Бриджерс, Дж. ЛаРоуз
Описание: Двадцать четыре года назад Либби Дэй пережила страшную трагедию : ночью убили ее мать и двух сестер, в преступлении признается виновным ее старший брат — Бэн Дэй, вина которого не была доказана полностью. Спустя время Либби Дэй решает возобновить расследование и узнать все, что произошло в ту роковую ночь. Готова ли она пережить этот кошмар вновь? На что она готова пойти ради правды? И какие ужасы хранят в себе эти темные тайны?
Качество видео: WEB-DLRip
Формат видео: AVI
Видео: XviD, 720x304, 1385 kb/s
Аудио: 48 kHz, AC3 Dolby Digital, 3/2 (L,C,R,l,r) + LFE ch, ~384 kbps
 
режиссер : Жиль Паке-Бреннер
сценарий : Жиль Паке-Бреннер, Гиллиан Флинн
продюсер: А.Дж. Дикс, Мэтт Джексон, Бет Коно, ...
оператор : Бэрри Экройд
композитор: Брайан Трансо, Грегори Трипи
художник: Лоуренс Беннетт, Дэниэл Турк, Эйприл Напье, ...
монтаж: Дуглас Крайс, Билли Фокс
премьера (мир) :31 марта 2015, ...
премьера (РФ) :13 августа 2015, «West»
рейтинг MPAA : рейтинг R Лицам до 17 лет,обязательно присутствие взрослого

MediaInfo

Полное имя : D:\Темные.тайны.2015.HDRip.nnm-club.avi
Формат : AVI
Формат/Информация : Audio Video Interleave
Размер файла : 1,41 Гбайт
Продолжительность : 1 ч. 53 м.
Общий поток : 1778 Кбит/сек
Программа кодирования : VirtualDubMod 1.5.10.2 (build 2540/release)
Библиотека кодирования : VirtualDubMod build 2540/release
Видео
Идентификатор : 0
Формат : MPEG-4 Visual
Профиль формата : Advanced [email protected]
Параметр BVOP формата : 2
Параметр QPel формата : Нет
Параметр GMC формата : Без точки перехода
Параметр матрицы формата : Default (H.263)
Режим смешивания : Сжатый битовый поток
Идентификатор кодека : XVID
Идентификатор кодека/Подсказка : XviD
Продолжительность : 1 ч. 53 м.
Битрейт : 1385 Кбит/сек
Ширина : 720 пикселей
Высота : 304 пикселя
Соотношение сторон : 2,35:1
Частота кадров : 23,976 кадра/сек
Цветовое пространство : YUV
Субдискретизация насыщенности : 4:2:0
Битовая глубина : 8 бит
Тип развёртки : Прогрессивная
Метод сжатия : С потерями
Бит/(Пиксели*Кадры) : 0.264
Размер потока : 1,09 Гбайт (78%)
Библиотека кодирования : XviD 66
Аудио
Идентификатор : 1
Формат : AC-3
Формат/Информация : Audio Coding 3
Расширение режима : CM (complete main)
Параметр Endianness формата : Big
Идентификатор кодека : 2000
Продолжительность : 1 ч. 53 м.
Вид битрейта : Постоянный
Битрейт : 384 Кбит/сек
Каналы : 6 каналов
Расположение каналов : Front: L C R, Side: L R, LFE
Частота : 48,0 КГц
Метод сжатия : С потерями
Размер потока : 311 Мбайт (22%)
Выравнивание : Разделение по промежуткам
Продолжительность промежутка : 42 мс. (1,00 видеокадр)
Время предзагрузки промежутка : 500 мс.

Скриншот c названием фильма

Скриншоты






Последний раз редактировалось: Сергей74 (2015-08-03 22:17), всего редактировалось 3 раз(а)

Создавать темы 03-Авг-2015 20:36

[Профиль]  [ЛС] 

Сергей74 ®

Стаж: 2 года 4 месяца

Сообщений: 211

Симпатии: 293

aa


Последний раз редактировалось: Сергей74 (2015-09-14 01:51), всего редактировалось 4 раз(а)

Создавать темы 03-Авг-2015 20:40

[Профиль]  [ЛС] 

ulkiora5

Стаж: 4 года 2 месяца

Сообщений: 50

Симпатии: 25

шикарно, ждал!!!

Создавать темы 03-Авг-2015 21:48

[Профиль]  [ЛС] 

nshamsiddin

Стаж: 7 лет 3 месяца

Сообщений: 7

книга очень интересная.. надеюсь не испортили фильмом

Создавать темы 03-Авг-2015 23:55

[Профиль]  [ЛС] 
Показать сообщения:    
Ответить на тему

Текущее время: 19-Авг 06:54

Часовой пояс: UTC + 5



Вы не можете начинать темы
Вы не можете отвечать на сообщения
Вы не можете редактировать свои сообщения
Вы не можете удалять свои сообщения
Вы не можете голосовать в опросах
Вы не можете прикреплять файлы к сообщениям
Вы не можете скачивать файлы