Переправа / The Crossing (Джон Ву / John Woo) [2014, Китай, Япония, Корея Южная, США, драма, история, HDRip] (Dub : [Лицензия / iTunes])

Ответить на тему
 

Сергей74 ®

Стаж: 2 года 6 месяцев

Сообщений: 211

Симпатии: 293

Переправа / The Crossing
Страна: Китай, Япония, Корея Южная, США
Жанр: драма, история
Год выпуска: 2014
Продолжительность: 02:08:14
Перевод: Профессиональный (дублированный) [Лицензия / iTunes]
Cубтитры: нет
Режиссер: Джон Ву / John Woo
В ролях: Такэси Канэсиро (Yan Shikun), Чжан Цзыи (Yu Zhen), Сон Хё Гю (Zhou Yunfen), Хуан Сяомин (Lei Yifang), Тун Давэй (Tong Daqing), Масами Нагасава (Masako Shimura), Шан Конг, Джек Као, Хитоми Куроки, Боуи Лам, Вэй Ли, Хайлу Цинь
Описание: В центре повествования три пары, чьи судьбы драматически связаны с событиями, которые разворачиваются на фоне военных действий. Фильм основан на реальной трагедии потопления корабля «Тайпин», произошедшем в 1949 году и унесший жизни более 1500 пассажиров и экипажа.
Релиз от: GEKADOL
Качество видео: HDRip
Формат видео: AVI
Видео: 720x304 (2.35:1), 1133 kbps, 24 fps, 0,216 bpp
Аудио: 5.1 / 48 kHz / 384 kbps / 16 bit
 
Рецензия от The Tourist«Прощание значит расставание навсегда»Китай второй половины сороковых годов — страна, раздираемая на части гражданской войной. Пока еще мирный и светский Шанхай далек от военных действий на Севере. Здесь есть место балам и навощенному паркету, по которому скользят изящные туфельки и офицерские сапоги. Здесь еще можно сохранить иллюзию того, что все будет хорошо, и только паникеры собирают в спешке свои вещи и скупают билеты на тайваньские корабли. Но именно в это время там, на фронте решается судьба Шанхая.

Рецензия от The Tourist (Продолжение)

Режиссер Джон Ву в представлениях не нуждается. Он стал неотъемлемой частью голливудского кино в последние пятнадцать лет. Головокружительно стильные боевики и белые птицы в кадре — вот его визитная карточка. Теперь же перед нами другой Джон Ву. Осталась его масштабность и изысканность почерка постановщика, но темы стали глубже, серьезнее, важнее. Шпионские ленты уступили место грандиозной исторической мелодраме.
Первая часть «Переправы» пока так же далека от кульминационного кораблекрушения «Тайпина» и «Цзинь-Юаня», как и столица — от театра боевых действий. Ву делает акцент на маленьких историях обычных людей, их потерях, любви, тратах и радостях. Получается этакая «Война и Мир» в декорациях Гоминьдана и коммунистов. Лейтмотивом, конечно, становится любовь. Именно она возвращает жажду жизни и офицеру, и рядовому, и медсестре, которая безуспешно ищет своего жениха. Все эти люди, каждый по-своему, сражаются именно за это чувство, за свое сердце, которое отчаянно жаждет вернуться домой.
Прекрасная Цжан Цзыи и Такеши Канесиро, звезды в родных странах, знакомы зрителю по «Мемуарам Гейши» и «Дому Летающих Кинжалов», будут вести нас сквозь эту историю. Война, как бы ужасная она ни была, оставляет в душах их героев место для теплых воспоминаний и надежды. Джон Ву всегда был чужд стереотипам, не изменил он себе и сейчас. Он далек от политики и деления на «черное» и «белое», вынося каждого своего героя, будь то гоминьданский генерал или босоногая пианистка, на суд сердца зрителя. Вместе с этим, «Переправа» становится одним из способов «говорить» с людьми в любой стране, потому как сам режиссер уверен, что его кино помогает понять не только многие китайские тонкости, но и людей. И этому языку Джона Ву стоит научиться.

Доп. информация

MediaInfo

Complete name : D:\PErEprav0..2014.D.HDRip.1400Mb.avi
Format : AVI
Format/Info : Audio Video Interleave
File size : 1.37 GiB
Duration : 2h 8mn
Overall bit rate : 1 526 Kbps
Writing application : VirtualDubMod 1.5.10.2 (build 2540/release)
Writing library : VirtualDubMod build 2540/release
Video
ID : 0
Format : MPEG-4 Visual
Format profile : Advanced [email protected]
Format settings, BVOP : 2
Format settings, QPel : No
Format settings, GMC : No warppoints
Format settings, Matrix : Default (MPEG)
Codec ID : XVID
Codec ID/Hint : XviD
Duration : 2h 8mn
Bit rate : 1 133 Kbps
Width : 720 pixels
Height : 304 pixels
Display aspect ratio : 2.35:1
Frame rate : 24.000 fps
Color space : YUV
Chroma subsampling : 4:2:0
Bit depth : 8 bits
Scan type : Progressive
Compression mode : Lossy
Bits/(Pixel*Frame) : 0.216
Stream size : 1.02 GiB (74%)
Writing library : XviD 1.2.1 (UTC 2008-12-04)
Audio
ID : 1
Format : AC-3
Format/Info : Audio Coding 3
Mode extension : CM (complete main)
Format settings, Endianness : Big
Codec ID : 2000
Duration : 2h 8mn
Bit rate mode : Constant
Bit rate : 384 Kbps
Channel(s) : 6 channels
Channel positions : Front: L C R, Side: L R, LFE
Sampling rate : 48.0 KHz
Compression mode : Lossy
Stream size : 352 MiB (25%)
Alignment : Split accross interleaves
Interleave, duration : 42 ms (1.00 video frame)
Interleave, preload duratio : 500 ms

Скриншот c названием фильма

Скриншоты









Последний раз редактировалось: Сергей74 (2015-08-04 01:13), всего редактировалось 3 раз(а)

Создавать темы 03-Авг-2015 23:09

[Профиль]  [ЛС] 

Сергей74 ®

Стаж: 2 года 6 месяцев

Сообщений: 211

Симпатии: 293

aa


Последний раз редактировалось: Сергей74 (2015-09-14 01:51), всего редактировалось 2 раз(а)

Создавать темы 03-Авг-2015 23:23

[Профиль]  [ЛС] 

Топик был перенесен из форума Фильмы за 2014 в форум Азиатские фильмы
Каротажник

Создавать темы 04-Авг-2015 11:19

 
Показать сообщения:    
Ответить на тему

Текущее время: 18-Окт 03:07

Часовой пояс: UTC + 5



Вы не можете начинать темы
Вы не можете отвечать на сообщения
Вы не можете редактировать свои сообщения
Вы не можете удалять свои сообщения
Вы не можете голосовать в опросах
Вы не можете прикреплять файлы к сообщениям
Вы не можете скачивать файлы