Ночь была темна / Dark was the night (Джек Хеллер / Jack Heller) [2014, США, ужасы, триллер, драма, BDRip-AVC] (MVO : Scarlet Heaven Studio)

Ответить на тему
 

Behzod5555 ®

Стаж: 2 года

Сообщений: 21

Симпатии: 55

Ночь была темна / Dark was the night-- Страна: США--Жанр: ужасы, триллер, драма--Год выпуска: 2014--Продолжительность: 01:38:32--Перевод: Профессиональный (многоголосый закадровый) Доп. инфо о переводе Scarlet Heaven Studio--Режиссер: Джек Хеллер / Jack Heller--В ролях: Кевин Дюран, Лукас Хаас, Стив Эйджи, Ник Дамичи, Хит Фриман, Сабина Гадеки, Сет Хендрикс, Бьянка Кэйлик, Ethan Khusidman, Джозеф Паллистер--Описание: Вырубка леса в захолустном местечке Мейден-Вудс приводит к нарушению природного баланса и пробуждению древнего зла. В схватку за жизни местных жителей вступают отважный шериф и его верный помощник.--Качество видео: BDRip-AVC
Формат видео: AVI
Видео: DivX, 720x304 23.98fps 1584Kbps
Аудио: AC3, 48.0 KHz, 6 ch, 448 Kbps--

MediaInfo

General
Format : AVI
Format/Info : Audio Video Interleave
File size : 1.41 GiB
Duration : 1h 38mn
Overall bit rate : 2 042 Kbps
Video
ID : 0
Format : MPEG-4 Visual
Codec ID : DX50
Codec ID/Hint : DivX 5
Duration : 1h 38mn
Bit rate : 1 504 Kbps
Width : 720 pixels
Height : 304 pixels
Display aspect ratio : 2.35:1
Frame rate : 23.976 fps
Color space : YUV
Chroma subsampling : 4:2:0
Compression mode : Lossy
Bits/(Pixel*Frame) : 0.287
Stream size : 1.04 GiB (74%)
Audio
ID : 1
Format : AC-3
Format/Info : Audio Coding 3
Codec ID : 2000
Duration : 1h 38mn
Bit rate mode : Constant
Bit rate : 448 Kbps
Channel(s) : 6 channels
Sampling rate : 48.0 KHz
Bit depth : 16 bits
Compression mode : Lossy
Stream size : 316 MiB (22%)
Alignment : Aligned on interleaves

Скриншот c названием фильма

Скриншоты





Последний раз редактировалось: Behzod5555 (2015-08-04 14:00), всего редактировалось 1 раз

Создавать темы 04-Авг-2015 10:43

[Профиль]  [ЛС] 

Daimos

Стаж: 4 года 11 месяцев

Сообщений: 35

Симпатии: 8

Не мог удержаться: Ночь была темна И полна ужасов :)
Кто смотрел? как фильм?

Создавать темы 10-Авг-2015 15:35

[Профиль]  [ЛС] 
Показать сообщения:    
Ответить на тему

Текущее время: 18-Авг 02:27

Часовой пояс: UTC + 5



Вы не можете начинать темы
Вы не можете отвечать на сообщения
Вы не можете редактировать свои сообщения
Вы не можете удалять свои сообщения
Вы не можете голосовать в опросах
Вы не можете прикреплять файлы к сообщениям
Вы не можете скачивать файлы