Практическое руководство по использованию мужчин / Nam-ja sa-yong-seol-myeong-seo (Вонсок Ли) [2013, Корея Южная, мелодрама, комедия,, DVDRip] (VO : Showbox)

Ответить на тему
 

Боксер ®

Стаж: 2 года 1 месяц

Сообщений: 54

Симпатии: 34

Практическое руководство по использованию мужчин / Nam-ja sa-yong-seol-myeong-seo
Страна: Корея Южная
Жанр: мелодрама, комедия,
Год выпуска: 2013
Продолжительность: 1 ч. 54 м.
Перевод: Одноголосый закадровый Доп. инфо о переводе Showbox
Cубтитры: нет
Режиссер: Вонсок Ли
В ролях: Lee Si‑young Чжи Чан Ук Ким Чон Тхэ Ли Вон Чжон Бай Сон‑у
Описание: Главной героине не везет ни в чем. Личной жизни нет, на работе её никто не уважает и не ценит. И надежды на то, что это измениться — никакой. Но однажды, в ее руки попадает кассета с чудным названием «Руководство по управлению мужчинами». И её жизнь начинает меняться…
Качество видео: DVDRip
Формат видео: MP4
Видео: 340 кб/с, 640*270, 25,000 кадров/с, AVC
Аудио: 128 кб/с, 44,1 КГц, 2 канала, ААС

MediaInfo

Формат : MPEG-4
Профиль формата : Base Media
Идентификатор кодека : isom
Размер файла : 387 Мбайт
Продолжительность : 1 ч. 54 м.
Режим общего битрейта : Переменный
Общий поток : 473 Кбит/сек
Программа кодирования : Lavf54.59.106
Видео
Идентификатор : 1
Формат : AVC
Формат/Информация : Advanced Video Codec
Профиль формата : [email protected]
Параметр CABAC формата : Нет
Параметр ReFrames формата : 3 кадра
Идентификатор кодека : avc1
Идентификатор кодека/Информация : Advanced Video Coding
Продолжительность : 1 ч. 54 м.
Битрейт : 340 Кбит/сек
Ширина : 640 пикселей
Высота : 270 пикселей
Соотношение сторон : 2,35:1
Режим частоты кадров : Постоянный
Частота кадров : 25,000 кадров/сек
Цветовое пространство : YUV
Субдискретизация насыщенности : 4:2:0
Битовая глубина : 8 бит
Тип развёртки : Прогрессивная
Бит/(Пиксели*Кадры) : 0.079
Размер потока : 278 Мбайт (72%)
Библиотека кодирования : x264 core 129
Настройки программы : cabac=0 / ref=3 / deblock=1:0:0 / analyse=0x1:0x111 / me=hex / subme=7 / psy=1 / psy_rd=1.00:0.00 / mixed_ref=1 / me_range=16 / chroma_me=1 / trellis=1 / 8x8dct=0 / cqm=0 / deadzone=21,11 / fast_pskip=1 / chroma_qp_offset=-2 / threads=24 / lookahead_threads=4 / sliced_threads=0 / nr=0 / decimate=1 / interlaced=0 / bluray_compat=0 / constrained_intra=0 / bframes=0 / weightp=0 / keyint=250 / keyint_min=25 / scenecut=40 / intra_refresh=0 / rc_lookahead=40 / rc=abr / mbtree=1 / bitrate=340 / ratetol=1.0 / qcomp=0.60 / qpmin=0 / qpmax=69 / qpstep=4 / vbv_maxrate=10000 / vbv_bufsize=10000 / nal_hrd=none / ip_ratio=1.40 / aq=1:1.00
Аудио
Идентификатор : 2
Формат : AAC
Формат/Информация : Advanced Audio Codec
Профиль формата : LC
Идентификатор кодека : 40
Продолжительность : 1 ч. 54 м.
Duration_LastFrame : -8 мс.
Вид битрейта : Переменный
Битрейт : 128 Кбит/сек
Максимальный битрейт : 10000 Кбит/сек
Каналы : 2 канала
Расположение каналов : Front: L R
Частота : 44,1 КГц
Метод сжатия : С потерями
Размер потока : 105 Мбайт (27%)

Скриншоты






Последний раз редактировалось: Боксер (2015-08-05 10:26), всего редактировалось 2 раз(а)

Создавать темы 05-Авг-2015 08:10

[Профиль]  [ЛС] 

Боксер ®

Стаж: 2 года 1 месяц

Сообщений: 54

Симпатии: 34

Спасибо большое Mixer City

Создавать темы 05-Авг-2015 10:42

[Профиль]  [ЛС] 

Боксер ®

Стаж: 2 года 1 месяц

Сообщений: 54

Симпатии: 34

Всем советую. Очень прикольный, смешной фильм и полезный даже.

Создавать темы 05-Авг-2015 10:52

[Профиль]  [ЛС] 

Боксер ®

Стаж: 2 года 1 месяц

Сообщений: 54

Симпатии: 34

Спасибо большое за раздачу bbk

Создавать темы 05-Авг-2015 21:39

[Профиль]  [ЛС] 
Показать сообщения:    
Ответить на тему

Текущее время: 21-Сен 02:56

Часовой пояс: UTC + 5



Вы не можете начинать темы
Вы не можете отвечать на сообщения
Вы не можете редактировать свои сообщения
Вы не можете удалять свои сообщения
Вы не можете голосовать в опросах
Вы не можете прикреплять файлы к сообщениям
Вы не можете скачивать файлы