Вендетта / Vendetta (Джен Соска, Сильвия Соска) [2015, США, боевик, драма, HDRip] (Dub : [datynet])

Ответить на тему
 

Behzod5555 ®

Стаж: 2 года 3 месяца

Сообщений: 21

Симпатии: 55

Вендетта / Vendetta-- Страна: США--Жанр: боевик, драма--Год выпуска: 2015--Продолжительность: 01:30:09--Перевод: Любительский (одноголосое) [datynet]--Режиссер: Джен Соска, Сильвия Соска--В ролях: Дин Кэйн, Пол Уайт, Майкл Эклунд, Бен Холлингсворт, Адриан Холмс, Мэттью МакКоулл, Кира Загорски, Алекс Паунович, Джонатан Уолкер, Ди Джей Джексон--Описание: Мейсон - частный детектив, который в поисках возмездия переступает черту закона. Ярость, безысходность и жажда отомстить за близкого человека превращают его из полицейского в преступника. Он намеренно садится в тюрьму, чтобы добраться к убийце своей жени, который отбывает там наказание. Но попав за решетку, он становится настоящей мишенью для заключенных, ведь многие хотят отомстить бывшему стражу порядка, который когда-то упрятал их за решетку. Мейсон оказывается в очень непростой и опасной ситуации, ведь он хочет отомстить лишь одному, в то время, как очень многие желают поквитаться с ним.--Качество видео: HDRip
Формат видео: AVI--Видео: XviD, 1776 kb/s, 720x400
Аудио: AC3, 384 kb/s (6 ch)--

MediaInfo

General
Format : AVI
Format/Info : Audio Video Interleave
File size : 1.37 GiB
Duration : 1h 30mn
Overall bit rate : 2 170 Kbps
Writing application : VirtualDubMod 1.5.10.2 (build 2540/release)
Writing library : VirtualDubMod build 2540/release
Video
ID : 0
Format : MPEG-4 Visual
Codec ID : XVID
Codec ID/Hint : XviD
Duration : 1h 30mn
Bit rate : 1 691 Kbps
Width : 720 pixels
Height : 400 pixels
Display aspect ratio : 16:9
Frame rate : 23.976 fps
Color space : YUV
Chroma subsampling : 4:2:0
Compression mode : Lossy
Bits/(Pixel*Frame) : 0.245
Stream size : 1.07 GiB (78%)
Audio
ID : 1
Format : AC-3
Format/Info : Audio Coding 3
Codec ID : 2000
Duration : 1h 30mn
Bit rate mode : Constant
Bit rate : 384 Kbps
Channel(s) : 6 channels
Sampling rate : 48.0 KHz
Compression mode : Lossy
Stream size : 248 MiB (18%)
Alignment : Aligned on interleaves

Скриншоты



Создавать темы 06-Авг-2015 17:53

[Профиль]  [ЛС] 

stark_1

Стаж: 6 лет 4 месяца

Сообщений: 24

Симпатии: 1

пара режиссеров, соски)))

Создавать темы 07-Авг-2015 21:52

[Профиль]  [ЛС] 

nigga22480

Стаж: 7 лет 6 месяцев

Сообщений: 211

Симпатии: 13

Режиссёры даже не стыдятся

Создавать темы 07-Авг-2015 23:27

[Профиль]  [ЛС] 

sanya13

Стаж: 4 года 1 месяц

Сообщений: 17

Симпатии: 9

946652Режиссёры даже не стыдятся
Они даже и не знают что "Соска" это ...

Создавать темы 12-Авг-2015 16:24

[Профиль]  [ЛС] 
Показать сообщения:    
Ответить на тему

Текущее время: 22-Ноя 19:58

Часовой пояс: UTC + 5



Вы не можете начинать темы
Вы не можете отвечать на сообщения
Вы не можете редактировать свои сообщения
Вы не можете удалять свои сообщения
Вы не можете голосовать в опросах
Вы не можете прикреплять файлы к сообщениям
Вы не можете скачивать файлы