Михаил Задорнов. Сборник разных лет про Америку (1994-2015) WEB-DLRip

Ответить на тему
 

Сергей74 ®

Стаж: 2 года 7 месяцев

Сообщений: 211

Симпатии: 293

Михаил Задорнов. Сборник разных лет про Америку (1994-2015) WEB-DLRip
Жанр: Юмористический концерт, сатира
Описание:Михаил Задорнов про Америку, американцев, политику США, Барака Обаму и Джен Псаки. Чем мы отличаемся от американцев? Я вас предупреждал про Америку! Все сбывается! Почему американцы бомбят другие страны? НАТО - Национальная Американская Террористическая Организация. ЕС - Европейские сепаратисты. G7 - Америка и её шестёрки. США - Соединённая Шайка Агрессоров. Три провокации против Америки. Советы Задорнова для Америки. Обама - не жилец. Рейтинг Путина - это неправда. Макдональдс надо запретить! Это вредная еда. Корм для американцев. Корм для американцев. Перлы Джорджа Буша. Американские законы инструкции. Письма Задорнову про американцев. Псаки в глаза – божья роса! Псаки рожает. Виноват Путин. Псаки. Тим Кук – гей. Канал Дождь и псачье дело. Отозвать Нобелевскую премию мира у Обамы и отдать Путину? Доллар надо запретить? Тайные масонские знаки на долларе. Игры с долларом - как его сложить, чтобы увидеть скрытое? Письмо Задорнову из ЦРУ. Про американское образование. Предсказания Пушкина, Тютчева и Есенина о США и современном мире. Задорнов про американские фильмы и сериалы. Жить в Америке скучно! Наши в Америке: мздра звенит, как наши делают покупки в Америке. Кто победит в ядерной войне? Случай с американцами в баре.

Режиссёр:
Михаил Задорнов
Продолжительность: ~ 03:10:50
Качество видео: WEB-DLRip
Видео: MPEG4, XviD, 704x400 (16:9), 25.000 fps, 1 700 Kbps (0.241 bit/pixel)
Аудио: MP3, 44.1 KHz, 2 ch, 128 Kbps, CBR

Медиа ИНФО

Формат : AVI
Формат/Информация : Audio Video Interleave
Профиль формата : OpenDML
Размер файла : 2,45 Гбайт
Продолжительность : 3 ч. 10 м.
Общий поток : 1839 Кбит/сек
Программа кодирования : VirtualDubMod 1.5.10.3 | www.virtualdub-fr.org || (build 2550/release)
Библиотека кодирования : VirtualDubMod build 2550/release
Видео
Идентификатор : 0
Формат : MPEG-4 Visual
Профиль формата : Advanced [email protected]
Параметр BVOP формата : 1
Параметр QPel формата : Нет
Параметр GMC формата : Без точки перехода
Параметр матрицы формата : Default (H.263)
Идентификатор кодека : XVID
Идентификатор кодека/Подсказка : XviD
Продолжительность : 3 ч. 10 м.
Битрейт : 1700 Кбит/сек
Ширина : 704 пикселя
Высота : 400 пикселей
Соотношение сторон : 16:9
Частота кадров : 25,000 кадров/сек
Цветовое пространство : YUV
Субдискретизация насыщенности : 4:2:0
Битовая глубина : 8 бит
Тип развёртки : Прогрессивная
Метод сжатия : С потерями
Бит/(Пиксели*Кадры) : 0.241
Размер потока : 2,27 Гбайт (92%)
Библиотека кодирования : XviD 1.2.1 (UTC 2008-12-04)
Аудио
Идентификатор : 1
Формат : MPEG Audio
Версия формата : Version 1
Профиль формата : Layer 3
Идентификатор кодека : 55
Идентификатор кодека/Подсказка : MP3
Продолжительность : 3 ч. 10 м.
Вид битрейта : Постоянный
Битрейт : 128 Кбит/сек
Каналы : 2 канала
Частота : 44,1 КГц
Метод сжатия : С потерями
Размер потока : 175 Мбайт (7%)
Выравнивание : Разделение по промежуткам
Продолжительность промежутка : 40 мс. (1,00 видеокадр)
Время предзагрузки промежутка : 500 мс.
Библиотека кодирования : LAME3.99r
Настройки программы : -m s -V 4 -q 2 -lowpass 17 -b 128

СКРИНЫ




Создавать темы 07-Авг-2015 01:30

[Профиль]  [ЛС] 

Сергей74 ®

Стаж: 2 года 7 месяцев

Сообщений: 211

Симпатии: 293

aa


Последний раз редактировалось: Сергей74 (2015-09-14 01:50), всего редактировалось 3 раз(а)

Создавать темы 07-Авг-2015 01:36

[Профиль]  [ЛС] 

фазилов

Стаж: 3 года 9 месяцев

Сообщений: 310

Симпатии: 344

Сергей74,
Вставил IP при включенном Тередо- нет коннекта. Забодал этот Тередо.

Скриншот

Может порт влияет? У меня тоже порт 55555

Создавать темы 08-Авг-2015 17:08

[Профиль]  [ЛС] 

фазилов

Стаж: 3 года 9 месяцев

Сообщений: 310

Симпатии: 344

Так и нет коннекта. На других торрентах Тередо работает

Скриншот

Создавать темы 08-Авг-2015 18:45

[Профиль]  [ЛС] 

Сергей74 ®

Стаж: 2 года 7 месяцев

Сообщений: 211

Симпатии: 293

946719Так и нет коннекта. На других торрентах Тередо работает

Скриншот

Вы свой тередо+порт мне в ЛС киньте ..попробую я добавить

Создавать темы 08-Авг-2015 22:26

[Профиль]  [ЛС] 
Показать сообщения:    
Ответить на тему

Текущее время: 18-Ноя 06:07

Часовой пояс: UTC + 5



Вы не можете начинать темы
Вы не можете отвечать на сообщения
Вы не можете редактировать свои сообщения
Вы не можете удалять свои сообщения
Вы не можете голосовать в опросах
Вы не можете прикреплять файлы к сообщениям
Вы не можете скачивать файлы