Сельма / Selma (Ава ДюВерней) [2014, США, Великобритания, Драма, биография, история, BDRip] (DVO)

Ответить на тему
 

thayurec ®

Стаж: 4 года 5 месяцев

Сообщений: 11

Симпатии: 2

Сельма / Selma
Страна: США, Великобритания
Жанр: Драма, биография, история
Год выпуска: 2014
Продолжительность: 02:05:09
Перевод: Любительский (двухголосый закадровый)
Cубтитры: нет
Режиссер: Ава ДюВерней
В ролях: Дэвид Ойелоуо, Кармен Эджого, Том Уилкинсон, Тим Рот, Лоррейн Туссен, Коммон, Джованни Рибизи, Рубен Сантьяго-Хадсон, Опра Уинфри, Кьюба Гудинг мл.
Описание: Драма о маршах протеста, устроенных знаменитым правозащитником Мартином Лютером Кингом в местечке Сельма, штат Алабама.
Фильм основан на событиях марша 1965 года (англ.)русск. в Сельме и Монтгомери в рамках движения за гражданские права чернокожих в США, в особенности право голоса на выборах. Сюжет фильма начинается в 1963 году, после убийства четырех темнокожих детей белыми террористами Бирмингеме, штат Алабама. В Сельме тем временем разворачивается борьба за право голоса на выборах, в ходе которых Мартин Лютер Кинг пытается донести до Линдона Джонсона важность права голоса темнокожего населения. Основные события затем разворачиваются вокруг маршей темнокожих за право голоса, тогда как власти, в лице губернатора штата Джорджа Уоллеса, выступают против них.
Доп. информация: «Сельма» получил похвалу от критиков. Фильм был отмечен четырьмя номинациями на 72-й церемонии вручения наград премии «Золотой глобус»: лучший драматический фильм, лучшая режиссура (Ава Дюверней), лучшая мужская роль в драматическом фильме (Дэвид Ойелоуо) и лучшая песня (победа — Джон Ледженд и Common). Фильм также получил «Оскар» в номинации «лучшая песня к фильму» («Glory»), а также выдвигался как «Лучший фильм».
Качество видео: BDRip
Формат видео: MKV
Видео: MPEG-4 AVC, 2468 Кбит/с, 1280x544
Аудио: МР3, 2 ch, 192 Кбит/с

MediaInfo

General
Unique ID : 231471206212779033862189918779629497938 (0xAE23BB943FF2BF158A4F946D9455EE52)
Complete name : D:\kino\Selma.BDRip.ColdFilm.mkv
Format : Matroska
Format version : Version 2
File size : 2.44 GiB
Duration : 2h 8mn
Overall bit rate : 2 714 Kbps
Encoded date : UTC 2015-04-02 11:33:42
Writing application : mkvmerge v3.3.0 ('Language') built on Mar 24 2010 14:59:24
Writing library : Lavf54.63.104
Video
ID : 1
Format : MPEG-4 Visual
Format profile : [email protected]
Format settings, BVOP : No
Format settings, QPel : No
Format settings, GMC : No warppoints
Format settings, Matrix : Default (H.263)
Codec ID : V_MPEG4/ISO/ASP
Codec ID/Info : Advanced Simple Profile
Duration : 2h 8mn
Bit rate : 2 468 Kbps
Width : 1 280 pixels
Height : 544 pixels
Display aspect ratio : 2.35:1
Frame rate mode : Constant
Frame rate : 25.000 fps
Color space : YUV
Chroma subsampling : 4:2:0
Bit depth : 8 bits
Scan type : Progressive
Compression mode : Lossy
Bits/(Pixel*Frame) : 0.142
Stream size : 2.22 GiB (91%)
Writing library : Lavc54.92.100
Default : No
Forced : No
Audio
ID : 2
Format : MPEG Audio
Format version : Version 1
Format profile : Layer 3
Mode : Joint stereo
Mode extension : MS Stereo
Codec ID : A_MPEG/L3
Codec ID/Hint : MP3
Duration : 2h 8mn
Bit rate mode : Constant
Bit rate : 192 Kbps
Channel(s) : 2 channels
Sampling rate : 48.0 KHz
Compression mode : Lossy
Delay relative to video : 1s 0ms
Stream size : 177 MiB (7%)
Writing library : LAME3.99.5
Default : No
Forced : No

Скриншоты



Последний раз редактировалось: thayurec (2015-08-07 15:44), всего редактировалось 1 раз

Создавать темы 07-Авг-2015 11:59

[Профиль]  [ЛС] 

Топик был перенесен из форума Фильмы за 2014 в форум HD-AVC
Каротажник

Создавать темы 07-Авг-2015 15:42

 
Показать сообщения:    
Ответить на тему

Текущее время: 17-Дек 13:03

Часовой пояс: UTC + 5



Вы не можете начинать темы
Вы не можете отвечать на сообщения
Вы не можете редактировать свои сообщения
Вы не можете удалять свои сообщения
Вы не можете голосовать в опросах
Вы не можете прикреплять файлы к сообщениям
Вы не можете скачивать файлы