Гороскоп на удачу: Следуй за Мечтой (Арман Геворгян) [2015, Романтическая комедия, WEB-DLRip] [Лицензия]

Ответить на тему
 

Артур Хисматуллин ®

Стаж: 5 лет

Сообщений: 9

Симпатии: 18

Гороскоп на удачу Следуй За Мечтой
Жанр: Романтическая комедия
Год выпуска: 2015
Продолжительность: 01:35:35
Страна: Россия

Бюджет: $2 800 000
Сборы в России: $964 206
Премьера (мир): 20 июля 2015
Премьера (РФ): 16 июля 2015, «Централ Партнершип»


Режиссёр: Арман Геворгян
В ролях: Дмитрий Ендальцев, Светлана Ходченкова, Анна Чиповская, Тимур Батрутдинов, Борис Смолкин, Виталий Хаев, Гоша Куценко, Дмитрий Нагиев, Дмитрий Хрусталев, Михаил Самота

Описание: В руки Макса попадает «счастливый» гороскоп, которому он должен следовать 30 дней, выполняя все его безумные предписания, чтобы добиться расположения недоступной прежде красавицы и удачи во всех делах. Но в один прекрасный день гороскоп Макса подменяют…

Доп. информация:
Сценарий: Андрей Курейчик
Продюсер: Валерий Оня, Сергей Торчилин, Сергей Куликов
Оператор: Дмитрий Яшонков
Композитор: Дмитрий Носков
Художник: Екатерина Залетаева

Качество видео: WEB-DLRip
Формат видео: AVI
Видео: XviD, 2076 kb/s, 720x304
Аудио: AC3, 384 kb/s (6 ch)

Доп. информация

«Гороскоп на удачу» — это одна из лучших комедий последнего времени. Создатели фильма постарались на славу и представили нам на суд не проходное, одноразовое кино, а комедию со смыслом, моралью и поучительным посылом. Согласитесь, что этого достаточно, чтобы по крайней мере обратить на картину Армана Геворгяна внимание. Так что поумерьте скепсис, а ознакомьтесь с картиной поближе.
«Гороскоп на удачу» это замечательная комедия о судьбе и о любви, преподнесенная в легком, не навязчивом стиле, где есть над чем посмеяться и есть над чем задуматься. В фильме много достойных шуток, не примитивного юмора, а курьезность некоторых ситуаций заставит улыбнуться не раз. Картина насыщена яркими цветами, контрастами и великолепными видами. Понравилась романтика и трогательность в некоторых моментах. Что и говорить, фильм стильный, современный и несомненно красивый.

MediaInfo

General
Complete name : D:\Торренты\Гороскоп На Удачу 2015 Tas-IX.net.avi
Format : AVI
Format/Info : Audio Video Interleave
File size : 1.37 GiB
Duration : 1h 36mn
Overall bit rate : 2 028 Kbps
Video
ID : 0
Format : MPEG-4 Visual
Codec ID : XVID
Codec ID/Hint : XviD
Duration : 1h 36mn
Source duration : 50mn 58s
Bit rate : 54.6 Mbps
Width : 720 pixels
Height : 304 pixels
Display aspect ratio : 2.35:1
Frame rate : 24.000 fps
Color space : YUV
Chroma subsampling : 4:2:0
Compression mode : Lossy
Bits/(Pixel*Frame) : 10.396
Stream size : 19.4 GiB
Audio
ID : 1
Format : AC-3
Format/Info : Audio Coding 3
Mode extension : CM (complete main)
Format settings, Endianness : Big
Codec ID : 2000
Duration : 1h 36mn
Source duration : 67h 10mn
Bit rate mode : Constant
Bit rate : 384 Kbps
Channel(s) : 6 channels
Channel positions : Front: L C R, Side: L R, LFE
Sampling rate : 48.0 KHz
Bit depth : 16 bits
Compression mode : Lossy
Stream size : 10.8 GiB
Alignment : Split accross interleaves
Interleave, duration : 42 ms (1.00 video frame)
Interleave, preload duration : 500 ms

Скриншоты





Последний раз редактировалось: Артур Хисматуллин (2015-08-07 19:31), всего редактировалось 4 раз(а)

Создавать темы 07-Авг-2015 12:19

[Профиль]  [ЛС] 

Артур Хисматуллин ®

Стаж: 5 лет

Сообщений: 9

Симпатии: 18


ay

Создавать темы 07-Авг-2015 12:23

[Профиль]  [ЛС] 

Каротажник

Стаж: 3 года 11 месяцев

Сообщений: 195

Симпатии: 211

Артур Хисматуллин, исправьте заголовок, перезалейте торрент присутствует ссылка стороннего сайта

Создавать темы 07-Авг-2015 15:41

[Профиль]  [ЛС] 

SkoroXod

Стаж: 2 года

Сообщений: 99

Симпатии: 78

Спасибо! Комедия точно оставит у Вас положительные чувства и эмоции. Нелепые, курьёзные ситуации, в которые попадает главный герой, сыграны замечательно и вызывают улыбку. Сюжет комедии несколько фантастичен и идеализирован, но всё это таким естественным образом вписывается в структуру фильма, что этого просто не замечаешь. Слегка необычен сюжет комедии, где в виде "доброй феи" выступает юродивый карлик - астролог, что придаёт фильму больше свежести и комичности. А в основе комедии лежит поучительное содержание, повествующее о том, что необходимо всегда оставаться самим собой и уметь принимать самостоятельные решения!
Советую посмотреть всем.
Оценка - твёрдая 7.

Создавать темы 13-Окт-2015 17:20

[Профиль]  [ЛС] 

sergioboyyyy

Стаж: 5 лет 8 месяцев

Сообщений: 6

Фильм просто шикарный,особенно для влюблённых пар!Спасибо огромное!!!

Создавать темы 13-Мар-2016 23:45

[Профиль]  [ЛС] 
Показать сообщения:    
Ответить на тему

Текущее время: 23-Сен 12:39

Часовой пояс: UTC + 5



Вы не можете начинать темы
Вы не можете отвечать на сообщения
Вы не можете редактировать свои сообщения
Вы не можете удалять свои сообщения
Вы не можете голосовать в опросах
Вы не можете прикреплять файлы к сообщениям
Вы не можете скачивать файлы