Лабиринт (2012) / Labyrinth (2012) (Кристофер Смит) [2012, Германия, Великобритания, ЮАР, фэнтези, драмы, приключения, HDRip] (Dub)

Ответить на тему
 

Ulmas Umarov ®

Стаж: 2 года 7 месяцев

Сообщений: 4

Симпатии: 9

Лабиринт (2012) / Labyrinth (2012)
Страна: Германия, Великобритания, ЮАР
Жанр: фэнтези, драмы, приключения
Год выпуска: 2012
Продолжительность: 01:31:45
Перевод: Профессиональный (дублированный)
Cубтитры: нет
Режиссер: Кристофер Смит
В ролях: Джон Хёрт, Том Фелтон, Джессика Браун-Финдли, Кэти МакГрат, Тони Карран, Ванесса Кирби, Джон Линч, Себастиан Стэн, Джанет Сузман, Ст. Джон Александр, Орели Баржем
Описание: Оказавшиеся в данном лабиринте люди, имеют все шансы остаться здесь навсегда, ведь тут хранится множество самых разнообразных загадок и тайн, которые разгадать не способны даже особо одаренные, грамотные и осведомленные специалисты. Сериал представлен в виде увлекательнейшего приключения, в котором находят сплетение два сюжетных направления. В современном — археолог-женщина Эллис Таннер занимается раскопками в южных провинциях Франции, страстно жела[img][url][img][url][code][/code][/img][/url][/url][/img]я в расположенных под землей лабиринтах Каркасона открыть секрет пропажи катарского религиозного движения, являвшегося легендарным хранителем небезызвестного Святого Грааля. В направлении современном — молоденькая девушка из 13-го века, которая старается разгадать диаграммы и символику из трех ей вверенных священных писаний, и при этом остаться в живых.
Качество видео: HDRip
Формат видео: AVI
Видео: Xvid 720x400 25fps
Аудио: Dolby AC3 48000Hz 6ch 448kbps

MediaInfo

General
Complete name : E:\kinolar\serial\Labirint.s01.2012.P.HDRip\1.avi
Format : AVI
Format/Info : Audio Video Interleave
File size : 1.42 GiB
Duration : 1h 31mn
Overall bit rate : 2 222 Kbps
Writing application : VirtualDubModRus 1.5.10.2 (build 2542/release)
Writing library : VirtualDubMod build 2542/release
Video
ID : 0
Format : MPEG-4 Visual
Format profile : Advanced [email protected]
Format settings, BVOP : Yes
Format settings, QPel : No
Format settings, GMC : No warppoints
Format settings, Matrix : Custom
Codec ID : XVID
Codec ID/Hint : XviD
Duration : 1h 31mn
Bit rate : 1 765 Kbps
Width : 720 pixels
Height : 400 pixels
Display aspect ratio : 16:9
Frame rate : 25.000 fps
Color space : YUV
Chroma subsampling : 4:2:0
Bit depth : 8 bits
Scan type : Progressive
Compression mode : Lossy
Bits/(Pixel*Frame) : 0.245
Stream size : 1.13 GiB (79%)
Writing library : XviD 65
Audio
ID : 1
Format : AC-3
Format/Info : Audio Coding 3
Mode extension : CM (complete main)
Format settings, Endianness : Big
Codec ID : 2000
Duration : 1h 31mn
Bit rate mode : Constant
Bit rate : 448 Kbps
Channel count : 6 channels
Channel positions : Front: L C R, Side: L R, LFE
Sampling rate : 48.0 KHz
Bit depth : 16 bits
Compression mode : Lossy
Stream size : 294 MiB (20%)
Alignment : Split accross interleaves
Interleave, duration : 40 ms (1.00 video frame)
Interleave, preload duration : 500 ms

Скриншоты






Последний раз редактировалось: Ulmas Umarov (2015-08-14 22:07), всего редактировалось 5 раз(а)

Создавать темы 09-Авг-2015 15:07

[Профиль]  [ЛС] 

Grock

Стаж: 6 лет 8 месяцев

Сообщений: 637

Симпатии: 113

Ulmas Umarov, Добавьте тех данные картины и переделайте скрины

Создавать темы 10-Авг-2015 21:26

[Профиль]  [ЛС] 

Топик был перенесен из форума Зарубежное кино в форум Фильмы за 2010-2013
Mixer City

Создавать темы 15-Авг-2015 13:39

 

Shera_best

Стаж: 3 года 10 месяцев

Сообщений: 40

Симпатии: 12

где сидеры, почему у всех заказчка встала на 97,7%

Создавать темы 20-Авг-2015 20:18

[Профиль]  [ЛС] 
Показать сообщения:    
Ответить на тему

Текущее время: 23-Окт 11:23

Часовой пояс: UTC + 5



Вы не можете начинать темы
Вы не можете отвечать на сообщения
Вы не можете редактировать свои сообщения
Вы не можете удалять свои сообщения
Вы не можете голосовать в опросах
Вы не можете прикреплять файлы к сообщениям
Вы не можете скачивать файлы