РАДИО МОЛЧАНИЕ / RADIO SILENCE (Марко Ридль, Карстон Воух) [2015, Германия, Триллер, Ужасы, BDRip] (Dub : Авторский (одноголосый) Ворон)

Ответить на тему
 

Behzod5555 ®

Стаж: 2 года 3 месяца

Сообщений: 21

Симпатии: 55

РАДИО МОЛЧАНИЕ / RADIO SILENCE-- Страна: Германия--Жанр: Триллер, Ужасы--Год выпуска: 2015--Продолжительность: 01:38:32--Перевод: Авторский (одноголосый) Ворон--Режиссер: Марко Ридль, Карстон Воух--В ролях: Маркус Нафкен, Рональд Ничке, Ясмин Лорд, Джессика Гинкель, Вольфганг Пампель,Клаус-Дитер Клебш, Антония Фучс, Деннис Шмидт-Фосс, Детлеф Бирштедт--Описание: Ведущий пиратской радиостанции в прямом эфире обличает безумного серийного убийцу. Но весь ужас, который витает среди радио-волн, это всего лишь начало жестокой игры на выживание, цена в которой не только его жизнь, но и жизнь всех его близких. Остросюжетный и динамичный триллер ужасов в лучших традициях "Пилы" и "Молчания Ягнят".--Качество видео: BDRip
Формат видео: AVI--Видео: XviD, 1557 Кбит/с, 720x304
Аудио: АС3, 6 ch, 448 Кбит/с--

MediaInfo

General
Complete name : H:\LANIGIRO\Фильмы и видео\Фильмы и мульфильмы\Radio.Silence.2015.Xixidok.avi
Format : AVI
Format/Info : Audio Video Interleave
File size : 1.34 GiB
Duration : 1h 34mn
Overall bit rate : 2 015 Kbps
Writing application : VirtualDubMod 1.5.10.3 (build 2550/release)
Writing library : VirtualDubMod build 2550/release
Video #0
ID : 0
Format : MPEG-4 Visual
Format profile : [email protected]
Format settings, BVOP : No
Format settings, QPel : No
Format settings, GMC : No warppoints
Format settings, Matrix : Default (H.263)
Codec ID : XVID
Codec ID/Hint : XviD
Duration : 1h 34mn
Bit rate : 1 558 Kbps
Width : 720 pixels
Height : 304 pixels
Display aspect ratio : 2.35:1
Frame rate : 24.000 fps
Color space : YUV
Chroma subsampling : 4:2:0
Bit depth : 8 bits
Scan type : Progressive
Compression mode : Lossy
Bits/(Pixel*Frame) : 0.297
Stream size : 1.03 GiB (77%)
Writing library : XviD 1.1.2 (UTC 2006-11-01)
Audio #1
ID : 1
Format : AC-3
Format/Info : Audio Coding 3
Mode extension : CM (complete main)
Format settings, Endianness : Big
Codec ID : 2000
Duration : 1h 34mn
Bit rate mode : Constant
Bit rate : 448 Kbps
Channel(s) : 6 channels
Channel positions : Front: L C R, Side: L R, LFE
Sampling rate : 48.0 KHz
Bit depth : 16 bits
Compression mode : Lossy
Stream size : 304 MiB (22%)
Alignment : Split accross interleaves
Interleave, duration : 42 ms (1.00 video frame)
Interleave, preload duration : 500 ms

Скриншот c названием фильма

Скриншоты





Создавать темы 10-Авг-2015 18:13

[Профиль]  [ЛС] 

LanigirO

Стаж: 4 года 8 месяцев

Сообщений: 49

Симпатии: 19

946893H:\LANIGIRO\Фильмы и видео\Фильмы и мульфильмы\Radio.Silence.2015.Xixidok.avi
Чувак, ты хоть медиа-инфу свою ставь, не надо все копипастить...

Создавать темы 24-Окт-2015 00:52

[Профиль]  [ЛС] 
Показать сообщения:    
Ответить на тему

Текущее время: 18-Ноя 17:20

Часовой пояс: UTC + 5



Вы не можете начинать темы
Вы не можете отвечать на сообщения
Вы не можете редактировать свои сообщения
Вы не можете удалять свои сообщения
Вы не можете голосовать в опросах
Вы не можете прикреплять файлы к сообщениям
Вы не можете скачивать файлы