Вожди Атлантиды / Warlords of Atlantis (Кевин Коннор / Kevin Connor) [1978, США, Фантастика, боевик, приключения, DVDRip] (Dub : советский дубляж) (Original Eng)

Ответить на тему
 

Сергей74 ®

Стаж: 2 года 4 месяца

Сообщений: 211

Симпатии: 293

Вожди Атлантиды / Warlords of Atlantis
Страна: США
Жанр: Фантастика, боевик, приключения
Год выпуска: 1978
Продолжительность: 01:32:23
Перевод: Профессиональный (дублированный) [советский дубляж]
Cубтитры: нет
Оригинальная аудиодорожка: английский
Режиссер: Кевин Коннор / Kevin Connor
В ролях: Даг МакКлюр, Питер Гилмор, Шэйн Риммер, Дональд Биссет, Майкл Готард, Ли Броуди, Сид Чарисс
Описание: Английские ученые отправляются на поиски затерянных цивилизаций на научном судне. При первом же погружении батисферы на нее нападают плавающие чудовища и утаскивают в подводный город, где укрываются остатки затонувшей Атлантиды. Местные вожди способны управлять тварями вроде гигантского спрута или доисторических амфибий как своими механизмами. К тому же, они способны заглядывать в будущее. Как-бы теперь покинуть этих не обремененных гостеприимством хозяев?..

Качество видео: DVDRip
Формат видео: AVI
Видео: 704x400 (1.76:1), 25 fps, XviD build 50 ~1658 kbps avg, 0.23 bit/pixel
Аудио: 48 kHz, AC3 Dolby Digital, 2/0 (L,R) ch, ~192 kbps Rus DUB
Аудио 2: 48 kHz, AC3 Dolby Digital, 2/0 (L,R) ch, ~192 kbps AVO(Живов)
Аудио 3: 48 kHz, AC3 Dolby Digital, 2/0 (L,R) ch, ~192 kbps ENG
 

MediaInfo

General
Complete name : L:\Voghdi Atlontidiy.chopper887.avi
Format : AVI
Format/Info : Audio Video Interleave
File size : 1.46 GiB
Duration : 1h 32mn
Overall bit rate : 2 256 Kbps
Movie name : Voghdi Atlontidiy.chopper887
Director : chopper887
Genre : Action/Adventure
Writing application : VirtualDubMod 1.5.10.3 | www.virtualdub-fr.org || (build 2550/release)
Original source form/Name : Movie
Video
ID : 0
Format : MPEG-4 Visual
Format profile : Advanced [email protected]
Format settings, BVOP : 2
Format settings, QPel : No
Format settings, GMC : No warppoints
Format settings, Matrix : Custom
Codec ID : XVID
Codec ID/Hint : XviD
Duration : 1h 32mn
Bit rate : 1 660 Kbps
Width : 704 pixels
Height : 400 pixels
Display aspect ratio : 16:9
Frame rate : 25.000 fps
Color space : YUV
Chroma subsampling : 4:2:0
Bit depth : 8 bits
Scan type : Progressive
Compression mode : Lossy
Bits/(Pixel*Frame) : 0.236
Stream size : 1.07 GiB (74%)
Writing library : XviD 1.2.1 (UTC 2008-12-04)
Audio #1
ID : 1
Format : AC-3
Format/Info : Audio Coding 3
Mode extension : CM (complete main)
Codec ID : 2000
Duration : 1h 32mn
Bit rate mode : Constant
Bit rate : 192 Kbps
Channel(s) : 2 channels
Channel positions : Front: L R
Sampling rate : 48.0 KHz
Bit depth : 16 bits
Compression mode : Lossy
Stream size : 127 MiB (9%)
Alignment : Split accross interleaves
Interleave, duration : 40 ms (1.00 video frame)
Interleave, preload duration : 500 ms
Audio #2
ID : 2
Format : AC-3
Format/Info : Audio Coding 3
Mode extension : CM (complete main)
Codec ID : 2000
Duration : 1h 32mn
Bit rate mode : Constant
Bit rate : 192 Kbps
Channel(s) : 2 channels
Channel positions : Front: L R
Sampling rate : 48.0 KHz
Bit depth : 16 bits
Compression mode : Lossy
Stream size : 127 MiB (9%)
Alignment : Split accross interleaves
Interleave, duration : 40 ms (1.00 video frame)
Interleave, preload duration : 500 ms
Audio #3
ID : 3
Format : AC-3
Format/Info : Audio Coding 3
Mode extension : CM (complete main)
Codec ID : 2000
Duration : 1h 32mn
Bit rate mode : Constant
Bit rate : 192 Kbps
Channel(s) : 2 channels
Channel positions : Front: L R
Sampling rate : 48.0 KHz
Bit depth : 16 bits
Compression mode : Lossy
Stream size : 127 MiB (9%)
Alignment : Split accross interleaves
Interleave, duration : 40 ms (1.00 video frame)
Interleave, preload duration : 500 ms

Скриншот c названием фильма

Скриншоты






Последний раз редактировалось: Сергей74 (2015-08-12 12:37), всего редактировалось 3 раз(а)

Создавать темы 11-Авг-2015 23:44

[Профиль]  [ЛС] 

Сергей74 ®

Стаж: 2 года 4 месяца

Сообщений: 211

Симпатии: 293

aa

Создавать темы 12-Авг-2015 00:12

[Профиль]  [ЛС] 
Показать сообщения:    
Ответить на тему

Текущее время: 22-Авг 00:48

Часовой пояс: UTC + 5



Вы не можете начинать темы
Вы не можете отвечать на сообщения
Вы не можете редактировать свои сообщения
Вы не можете удалять свои сообщения
Вы не можете голосовать в опросах
Вы не можете прикреплять файлы к сообщениям
Вы не можете скачивать файлы