6 способов умереть / 6 Ways to Sundown (Надим Сума) [2015, США, боевик, триллер, криминал, BDRip](Sub Rus + Original Eng)

Ответить на тему
 

Сергей74 ®

Стаж: 2 года 6 месяцев

Сообщений: 211

Симпатии: 293

6 способов умереть / 6 Ways to Sundown
Страна: США
Жанр: боевик, триллер, криминал
Год выпуска: 2015
Продолжительность: 01:43:30
Перевод: Отсутствует (Русские субтитры (Энигма)
Cубтитры: русские
Оригинальная аудиодорожка: английский
Режиссер: Надим Сума
В ролях: Винни Джонс, Майкл Рене Уолтон, Вивика А. Фокс, Том Сайзмор, Бай Лин, Доминик Суэйн, Мелисса Марс, Питер Добсон, Крис Джай Алекс, Хосе Росете
Описание: Джон Доу человек-загадка. Его личность и история неизвестны. Его цель уничтожить наркодиллера Сонни Гарсия. Но прежде, чем он сделает это, он хочет, чтобы Сонни почувствовал все, что он чувствовал, выстрадал все, что он страдал и потерял все, что он потерял.
Джон Доу нанимает 6 преступников с индивидуальными способностями, для выполнения своего плана. Джон хочет 6 вещей, взятых от Сонни: его свободу, его любовь, его репутацию, его самое ценное достояние, деньги и, наконец его жизнь.
Жизнь Сонни быстро и эффективно превратилась в сущий ад. Его банковский счет уничтожен. Его жена исчезает. Его преданность ставится под сомнение. Но это только начало.

Качество видео: BDRip
Формат видео: AVI
Видео: XviD, 801 kb/s, 640x272
Аудио: MP3, 2 ch, 128 Кбит/с ENG

 

MediaInfo

General
Complete name : D:\ФИЛЬМЫ\6.Ways.To.Die.2015.Xixidok.avi
Format : AVI
Format/Info : Audio Video Interleave
File size : 698 MiB
Duration : 1h 43mn
Overall bit rate : 942 Kbps
Writing application : MEncoder SVN-r33883(20110719-gcc4.5.2)
Writing library : MPlayer
Video
ID : 0
Format : MPEG-4 Visual
Format profile : Advanced [email protected]
Format settings, BVOP : 2
Format settings, QPel : No
Format settings, GMC : No warppoints
Format settings, Matrix : Default (H.263)
Codec ID : XVID
Codec ID/Hint : XviD
Duration : 1h 43mn
Bit rate : 802 Kbps
Width : 640 pixels
Height : 272 pixels
Display aspect ratio : 2.35:1
Frame rate : 23.976 fps
Color space : YUV
Chroma subsampling : 4:2:0
Bit depth : 8 bits
Scan type : Progressive
Compression mode : Lossy
Bits/(Pixel*Frame) : 0.192
Stream size : 594 MiB (85%)
Writing library : XviD 1.2.1 (UTC 2008-12-04)
Audio
ID : 1
Format : MPEG Audio
Format version : Version 1
Format profile : Layer 3
Mode : Joint stereo
Codec ID : 55
Codec ID/Hint : MP3
Duration : 1h 43mn
Bit rate mode : Constant
Bit rate : 128 Kbps
Channel(s) : 2 channels
Sampling rate : 44.1 KHz
Compression mode : Lossy
Delay relative to video : 42ms
Stream size : 94.8 MiB (14%)
Alignment : Aligned on interleaves
Interleave, duration : 26 ms (0.63 video frame)
Interleave, preload duratio : 522 ms
Writing library : LAME3.98.4

Скриншот c названием фильма

Скриншоты








Последний раз редактировалось: Сергей74 (2015-08-12 13:24), всего редактировалось 1 раз

Создавать темы 12-Авг-2015 13:19

[Профиль]  [ЛС] 

Сергей74 ®

Стаж: 2 года 6 месяцев

Сообщений: 211

Симпатии: 293

aa

Создавать темы 12-Авг-2015 13:21

[Профиль]  [ЛС] 
Показать сообщения:    
Ответить на тему

Текущее время: 22-Окт 20:45

Часовой пояс: UTC + 5



Вы не можете начинать темы
Вы не можете отвечать на сообщения
Вы не можете редактировать свои сообщения
Вы не можете удалять свои сообщения
Вы не можете голосовать в опросах
Вы не можете прикреплять файлы к сообщениям
Вы не можете скачивать файлы