Безумный Макс: Дорога ярости / Mad Max: Fury Road (Джордж Миллер) [2015, Австралия, США, боевик, фантастика, приключения, WEB-DLRip [H.264]] (Dub : (iTunes)) (Sub Rus.Eng)

Ответить на тему
 

Сергей74 ®

Стаж: 2 года 6 месяцев

Сообщений: 211

Симпатии: 293

Безумный Макс: Дорога ярости / Mad Max: Fury Road
Страна: Австралия, США / Kennedy Miller Productions, Village Roadshow Pictures
Жанр: боевик, фантастика, приключения
Год выпуска: 2015
Продолжительность: 02:00:21
Перевод: Профессиональный (дублированный) - (iTunes)
Вид субтитров: Вшитые отключаемые
Язык субтитров: Русский, Английский
Режиссер: Джордж Миллер
В ролях: Том Харди, Шарлиз Терон, Николас Холт, Хью Кияс-Бёрн, Джош Хелман, Нэйтан Джонс, Зои Кравиц, Роузи Хантингтон-Уайтли, Райли Кио, Эбби Ли
Описание: Преследуемый призраками беспокойного прошлого, Макс уверен, что лучший способ выжить — скитаться в одиночестве. Несмотря на это, он присоединяется к бунтарям, бегущим через всю пустыню на боевой фуре, под предводительством военачальника Фуриосы.
Они пытаются сбежать из Цитадели, страдающей от тирании Несмертного Джо, у которого они забрали кое-что очень ценное. Разъярённый военачальник бросает все свои силы на погоню за мятежниками, ступая на дорогу войны — дорогу ярости.

Качество видео:WEB-DLRip [H.264]
Формат видео: MKV
Видео: 1024x422 (2,40:1), 23,976 fps, H.264 ~ 1541 kbps avg, 0.149 bit/pixel
Аудио: 48,0 kHz, Audio Coding 3, 2 ch, ~192 kbps avg
 

В РОЛЯХ




ДОП. Инфо

MediaInfo

General
Unique ID : 197185821608416250562518970613113451432 (0x94589B9BB135CB80B6A14F3CA54673A8)
Complete name : Mad Max Fury Road.WEB DLRip AVC.D.2015.mkv
Format : Matroska
Format version : Version 4 / Version 2
File size : 1.46 GiB
Duration : 2h 0mn
Overall bit rate : 1 734 Kbps
Movie name : Mad.Max.2015
Encoded date : UTC 2015-08-11 07:07:01
Writing application : mkvmerge v8.2.0 ('World of Adventure') 64bit
Writing library : libebml v1.3.1 + libmatroska v1.4.2
DURATION : 02:00:21.184000000
NUMBER_OF_FRAMES : 225662
NUMBER_OF_BYTES : 173308416
_STATISTICS_WRITING_APP : mkvmerge v8.2.0 ('World of Adventure') 64bit
_STATISTICS_WRITING_DATE_UTC : 2015-08-11 07:07:01
_STATISTICS_TAGS : BPS DURATION NUMBER_OF_FRAMES NUMBER_OF_BYTES
Video
ID : 1
Format : AVC
Format/Info : Advanced Video Codec
Format profile : [email protected]
Format settings, CABAC : Yes
Format settings, ReFrames : 9 frames
Codec ID : V_MPEG4/ISO/AVC
Duration : 2h 0mn
Bit rate : 1 541 Kbps
Width : 1 024 pixels
Height : 422 pixels
Display aspect ratio : 2.40:1
Frame rate mode : Constant
Frame rate : 23.976 fps
Color space : YUV
Chroma subsampling : 4:2:0
Bit depth : 8 bits
Scan type : Progressive
Bits/(Pixel*Frame) : 0.149
Stream size : 1.27 GiB (87%)
Writing library : x264 core 130 r2273 b3065e6
Encoding settings : cabac=1 / ref=9 / deblock=1:-2:-2 / analyse=0x3:0x113 / me=umh / subme=10 / psy=1 / psy_rd=1.00:0.15 / mixed_ref=1 / me_range=32 / chroma_me=1 / trellis=2 / 8x8dct=1 / cqm=0 / deadzone=21,11 / fast_pskip=1 / chroma_qp_offset=-3 / threads=6 / lookahead_threads=1 / sliced_threads=0 / nr=0 / decimate=0 / interlaced=0 / bluray_compat=0 / constrained_intra=0 / bframes=9 / b_pyramid=2 / b_adapt=2 / b_bias=0 / direct=3 / weightb=1 / open_gop=0 / weightp=2 / keyint=240 / keyint_min=23 / scenecut=40 / intra_refresh=0 / rc=2pass / mbtree=0 / bitrate=1541 / ratetol=1.0 / qcomp=0.60 / qpmin=0 / qpmax=69 / qpstep=4 / cplxblur=20.0 / qblur=0.5 / ip_ratio=1.40 / pb_ratio=1.30 / aq=1:1.00
Default : Yes
Forced : No
Audio
ID : 2
Format : AC-3
Format/Info : Audio Coding 3
Mode extension : CM (complete main)
Format settings, Endianness : Big
Codec ID : A_AC3
Duration : 2h 0mn
Bit rate mode : Constant
Bit rate : 192 Kbps
Channel count : 2 channels
Channel positions : Front: L R
Sampling rate : 48.0 KHz
Bit depth : 16 bits
Compression mode : Lossy
Stream size : 165 MiB (11%)
Language : Russian
Default : Yes
Forced : No
Text #1
ID : 3
Format : UTF-8
Codec ID : S_TEXT/UTF8
Codec ID/Info : UTF-8 Plain Text
Title : Doctor_Joker
Language : Russian
Default : No
Forced : No
Text #2
ID : 4
Format : UTF-8
Codec ID : S_TEXT/UTF8
Codec ID/Info : UTF-8 Plain Text
Language : English
Default : No
Forced : No
Menu
00:00:00.000 : en:1
00:10:42.000 : en:2
00:19:06.000 : en:3
00:30:13.000 : en:4
00:42:55.000 : en:5
00:49:33.000 : en:6
00:59:55.000 : en:7
01:13:02.000 : en:8
01:22:08.000 : en:9
01:30:02.000 : en:10
01:40:39.000 : en:11
01:49:12.000 : en:12
01:53:05.000 : en:13

Скриншот c названием фильма

Скриншоты












Последний раз редактировалось: Сергей74 (2015-08-13 02:13), всего редактировалось 8 раз(а)

Создавать темы 12-Авг-2015 21:40

[Профиль]  [ЛС] 

Сергей74 ®

Стаж: 2 года 6 месяцев

Сообщений: 211

Симпатии: 293

aa

Создавать темы 12-Авг-2015 21:44

[Профиль]  [ЛС] 
Показать сообщения:    
Ответить на тему

Текущее время: 18-Окт 01:48

Часовой пояс: UTC + 5



Вы не можете начинать темы
Вы не можете отвечать на сообщения
Вы не можете редактировать свои сообщения
Вы не можете удалять свои сообщения
Вы не можете голосовать в опросах
Вы не можете прикреплять файлы к сообщениям
Вы не можете скачивать файлы