Идеальный голос 2 / Pitch Perfect 2 (Элизабет Бэнкс) [2015, США, Комедия, HDRip] (MVO)

Ответить на тему
 

donlotus2 ®

Стаж: 6 лет 5 месяцев

Сообщений: 30

Симпатии: 12

Идеальный голос 2 / Pitch Perfect 2
Страна: США
Жанр: Комедия
Год выпуска: 2015
Продолжительность: 01:54:38
Перевод: Профессиональный (многоголосый закадровый)
Cубтитры: нет
Режиссер: Элизабет Бэнкс
В ролях: Анна Кендрик, Ребел Уилсон, Хейли Стайнфелд, Бриттани Сноу, Скайлар Эстин, Адам Дивайн, Кэти Сагал, Анна Кэмп, Бен Платт, Алексис Нэп
Описание: Самые крутые девчонки возвращаются! Теперь у них все по-взрослому: ремиксы — моднее, каблуки — выше, юбки — короче. Но идеальный голос всегда на месте.
Качество видео: HDRip
Формат видео: AVI
Видео: XviD, 1429 kb/s, 720x384
Аудио: Dolby AC3, 48000Hz, 6ch, 384 kb/s

MediaInfo

Общее
Полное имя : E:1delaniy.Golos.2.2015.D.HDRip.1400MB.avi
Формат : AVI
Формат/Информация : Audio Video Interleave
Размер файла : 1,46 Гбайт
Продолжительность : 1 ч. 54 м.
Общий поток : 1822 Кбит/сек
Программа кодирования : VirtualDubMod 1.5.10.3 | www.virtualdub-fr.org || (build 2550/release)
Библиотека кодирования : VirtualDubMod build 2550/release
Видео
Идентификатор : 0
Формат : MPEG-4 Visual
Профиль формата : Advanced [email protected]
Параметр BVOP формата : 2
Параметр QPel формата : Нет
Параметр GMC формата : Без точки перехода
Параметр матрицы формата : Default (MPEG)
Идентификатор кодека : XVID
Идентификатор кодека/Подсказка : XviD
Продолжительность : 1 ч. 54 м.
Битрейт : 1429 Кбит/сек
Ширина : 720 пикселей
Высота : 384 пикселя
Соотношение сторон : 1,85:1
Частота кадров : 23,976 кадра/сек
Цветовое пространство : YUV
Субдискретизация насыщенности : 4:2:0
Битовая глубина : 8 бит
Тип развёртки : Прогрессивная
Метод сжатия : С потерями
Бит/(Пиксели*Кадры) : 0.216
Размер потока : 1,15 Гбайт (78%)
Библиотека кодирования : XviD 1.2.1 (UTC 2008-12-04)
Аудио
Идентификатор : 1
Формат : AC-3
Формат/Информация : Audio Coding 3
Расширение режима : CM (complete main)
Параметр Endianness формата : Big
Идентификатор кодека : 2000
Продолжительность : 1 ч. 54 м.
Вид битрейта : Постоянный
Битрейт : 384 Кбит/сек
Каналы : 6 каналов
Расположение каналов : Front: L C R, Side: L R, LFE
Частота : 48,0 КГц
Метод сжатия : С потерями
Размер потока : 315 Мбайт (21%)
Выравнивание : Разделение по промежуткам
Продолжительность промежутка : 42 мс. (1,00 видеокадр)
Время предзагрузки промежутка : 500 мс.

Скриншоты




Создавать темы 13-Авг-2015 14:18

[Профиль]  [ЛС] 

abuz85

Стаж: 8 лет 8 месяцев

Сообщений: 109

Симпатии: 80

1delaniy.Golos.2.2015.D.HDRip.1400MB.avi - Дублированный
Продолжительность: 01:54:46

Создавать темы 13-Авг-2015 16:16

[Профиль]  [ЛС] 

zhozef

Стаж: 5 лет 8 месяцев

Сообщений: 35

Симпатии: 6

Pitch Perfect 2 (2015) - IMDb 6,8/10

Создавать темы 14-Авг-2015 07:42

[Профиль]  [ЛС] 

Gannibal

Стаж: 6 лет 9 месяцев

Сообщений: 103

Симпатии: 18

Крутоо. Еще бы оригинальную дорожку вообще бы ништяк было бы)

Создавать темы 17-Авг-2015 18:51

[Профиль]  [ЛС] 

RUSLANBEK2010

Стаж: 5 лет 1 месяц

Сообщений: 249

Симпатии: 33

947567Крутоо. Еще бы оригинальную дорожку вообще бы ништяк было бы)
Качество вполне хорошее, советую.

Создавать темы 17-Авг-2015 21:50

[Профиль]  [ЛС] 

Бахытберген

Стаж: 4 года 4 месяца

Сообщений: 66

Симпатии: 18

фильм вообще бомба) очень нравится этот фильм) долго ждал премьеру 2-й части) спасибо за релиз)

Создавать темы 19-Авг-2015 02:48

[Профиль]  [ЛС] 
Показать сообщения:    
Ответить на тему

Текущее время: 20-Сен 03:39

Часовой пояс: UTC + 5



Вы не можете начинать темы
Вы не можете отвечать на сообщения
Вы не можете редактировать свои сообщения
Вы не можете удалять свои сообщения
Вы не можете голосовать в опросах
Вы не можете прикреплять файлы к сообщениям
Вы не можете скачивать файлы