Кто я / Who Am I - Kein System ist sicher (Баран бо Одар) [2014, Германия, Триллер] HD-Rip

Ответить на тему
 

Артур Хисматуллин ®

Стаж: 5 лет 3 месяца

Сообщений: 9

Симпатии: 18

Кто я / Who Am I - Kein System ist sicher
-Страна: Германия
Жанр: Триллер
Слоган: «Каждый видит то, что хочет видеть»
Год выпуска: 2014
Продолжительность: 01:41:47-Перевод: Профессиональный (многоголосый закадровый)
Cубтитры: Нет
Оригинальная аудиодорожка: Немецкий-Режиссер: Баран бо Одар
В ролях: Том Шиллинг, Элиас ЭмБарек, Вотан Вильке Мёринг, Антуан Моно мл., Ханна Херцшпрунг, Штефан Кампвирт, Трине Дюрхольм, Леопольд Хорнунг, Катарина Матц, Леонхард Каров
Описание: Бенджамин — молодой компьютерный гений. С детства он мечтает стать супергероем из комиксов и покорить мир. Но в реальном мире он — Никто. Его жизнь неожиданно меняется, когда он встречает свою полную противоположность — харизматичного парня Макса.
Не желая жить в жестких рамках системы, они совершают череду дерзких кибер-преступлений. Восстав против равнодушного общества, они становятся кумирами для целого поколения.
Теперь Бенджамин не просто супергерой, он — самый разыскиваемый хакер в мире. Но что его ждет после погружения в альтернативную реальность? Кто же он на самом деле?…- -Доп. информация: Сценарий: Янтйе Фризе, Баран бо Одар
Продюсер: Квирин Берг, Макс Видерманн, Штефан Гёртнер
Оператор: Николос Суммерер
Композитор: Майкл Камм
Художник: Силке Бур, Рамона Клиниковски, Антье Тауберт
Монтаж: Роберт Жесач-Премьера (Мир): 6 сентября 2014
Премьера (РФ): 13 августа 2015, «25th Floor Film»
Возраст: + зрителям, достигшим 18 лет-Качество видео: HDRip
Формат видео: AVI
Видео: Xvid, 720x304, 2.35:1, 25fps, 1 974 Kbps
Аудио: Audio: Dolby AC3 48000Hz 6ch 448kbps [A: ac3, 48000 Hz, 5.1, 448 kb/s] Русский
Аудио 2: Audio: Dolby AC3 48000Hz 6ch 448kbps [A: ac3, 48000 Hz, 5.1, 448 kb/s] Немецкий-

MediaInfo

Format : AVI
Format/Info : Audio Video Interleave
Format profile : OpenDML
File size : 2.05 GiB
Duration : 1h 41mn
Overall bit rate : 2 889 Kbps
Writing application : VirtualDubMod 1.5.10.2 (build 2540/release)
Writing library : VirtualDubMod build 2540/release
Video
ID : 0
Format : MPEG-4 Visual
Format profile : Advanced [email protected]
Format settings, BVOP : 2
Format settings, QPel : No
Format settings, GMC : No warppoints
Format settings, Matrix : Default (MPEG)
Codec ID : XVID
Codec ID/Hint : XviD
Duration : 1h 41mn
Bit rate : 1 974 Kbps
Width : 720 pixels
Height : 304 pixels
Display aspect ratio : 2.35:1
Frame rate : 25.000 fps
Color space : YUV
Chroma subsampling : 4:2:0
Bit depth : 8 bits
Scan type : Progressive
Compression mode : Lossy
Bits/(Pixel*Frame) : 0.361
Stream size : 1.40 GiB (68%)
Writing library : XviD 1.2.1 (UTC 2008-12-04)
Audio #1
ID : 1
Format : AC-3
Format/Info : Audio Coding 3
Mode extension : CM (complete main)
Format settings, Endianness : Big
Codec ID : 2000
Duration : 1h 41mn
Bit rate mode : Constant
Bit rate : 448 Kbps
Channel(s) : 6 channels
Channel positions : Front: L C R, Side: L R, LFE
Sampling rate : 48.0 KHz
Bit depth : 16 bits
Compression mode : Lossy
Stream size : 326 MiB (16%)
Alignment : Split accross interleaves
Interleave, duration : 40 ms (1.00 video frame)
Interleave, preload duration : 500 ms
Audio #2
ID : 2
Format : AC-3
Format/Info : Audio Coding 3
Mode extension : CM (complete main)
Format settings, Endianness : Big
Codec ID : 2000
Duration : 1h 41mn
Bit rate mode : Constant
Bit rate : 448 Kbps
Channel(s) : 6 channels
Channel positions : Front: L C R, Side: L R, LFE
Sampling rate : 48.0 KHz
Bit depth : 16 bits
Compression mode : Lossy
Stream size : 326 MiB (16%)
Alignment : Split accross interleaves
Interleave, duration : 40 ms (1.00 video frame)
Interleave, preload duration : 500 ms

Знаете ли вы, что...

- В комнате у главного героя можно заметить постер к фильму «Бойцовский клуб» (1999).

Скриншоты фильма



ay

Создавать темы 14-Авг-2015 03:03

[Профиль]  [ЛС] 

kat222000

Стаж: 6 лет 8 месяцев

Сообщений: 608

Симпатии: 1055

Перевод: Любительское (многоголосное) Paradox & OMSKBIRD records

Создавать темы 14-Авг-2015 23:00

[Профиль]  [ЛС] 

Артур Хисматуллин ®

Стаж: 5 лет 3 месяца

Сообщений: 9

Симпатии: 18

947285Перевод: Любительское (многоголосное) Paradox & OMSKBIRD records
Увы уже не исправить.

Создавать темы 15-Авг-2015 05:46

[Профиль]  [ЛС] 

Топик был перенесен из форума Фильмы за 2015 в форум Фильмы за 2014
mp1988

Создавать темы 15-Авг-2015 15:39

 

Jakon

Стаж: 4 года 2 месяца

Сообщений: 126

Симпатии: 2

кино шикардос)) 8

Создавать темы 16-Сен-2015 08:23

[Профиль]  [ЛС] 
Показать сообщения:    
Ответить на тему

Текущее время: 14-Дек 07:39

Часовой пояс: UTC + 5



Вы не можете начинать темы
Вы не можете отвечать на сообщения
Вы не можете редактировать свои сообщения
Вы не можете удалять свои сообщения
Вы не можете голосовать в опросах
Вы не можете прикреплять файлы к сообщениям
Вы не можете скачивать файлы