Выхода нет / Elq Chka (Ваге Саян) [2015 г., криминал, драма, WEB-DLRip]

Ответить на тему
 

alisher198022 ®

Стаж: 4 года 10 месяцев

Сообщений: 15

Симпатии: 5

Выхода нет / Elq Chka- --Год выпуска: 2015
Cтрана: Армения
Жанр: криминал, драма
Продолжительность::01:23:00
Перевод: Профессиональное, Официальный, многоголосое-Режиссер: Ваге Саян-В ролях: Камо Унанян,Армен Марутян,Ани Ароян,Арташес Алексаняан,Аршавир Паносян,Артавазд Оганнисян,Нарек Петросян,Армен Согоян,Анати Саканян,Левон Оганнисян-Описание: Он мечтал о новых достижениях в спорте и большой любви. Но, когда ты окружен врагами и готов во имя родных и любимых людей пожертвовать собственной жизнью, будь готов, что придет момент, когда ты поймешь, что больше выхода нет, и единственный человек, который может спасти тебя, это ты сам…--Доп. информация:
сценарий Арутюн Гукасян
продюсер Камо Унанян
оператор Нарек Саргсян
композитор Эдмонд Макарян-премьера (мир)15 февраля 2014
премьера (РФ) 2 апреля 2015, «Арена»- -возраст зрителям, достигшим 16 лет--

M.I

Общее
Полное имя : F:\vigoda_net.1400.avi
Формат : AVI
Формат/Информация : Audio Video Interleave
Размер файла : 1,37 Гбайт
Продолжительность : 1 ч. 22 м.
Общий поток : 2359 Кбит/сек
Программа кодирования : VirtualDubMod 1.5.10.3 | www.virtualdub-fr.org || (build 2550/release)
Библиотека кодирования : VirtualDubMod build 2550/release
Видео
Идентификатор : 0
Формат : MPEG-4 Visual
Профиль формата : Advanced [email protected]
Параметр BVOP формата : 2
Параметр QPel формата : Нет
Параметр GMC формата : Без точки перехода
Параметр матрицы формата : Default (MPEG)
Идентификатор кодека : XVID
Идентификатор кодека/Подсказка : XviD
Продолжительность : 1 ч. 22 м.
Битрейт : 2158 Кбит/сек
Ширина : 720 пикселей
Высота : 400 пикселей
Соотношение сторон : 16:9
Частота кадров : 25,000 кадров/сек
Цветовое пространство : YUV
Субдискретизация насыщенности : 4:2:0
Битовая глубина : 8 бит
Тип развёртки : Прогрессивная
Метод сжатия : С потерями
Бит/(Пиксели*Кадры) : 0.300
Размер потока : 1,25 Гбайт (91%)
Библиотека кодирования : XviD 1.2.1 (UTC 2008-12-04)
Аудио
Идентификатор : 1
Формат : AC-3
Формат/Информация : Audio Coding 3
Расширение режима : CM (complete main)
Параметр Endianness формата : Big
Идентификатор кодека : 2000
Продолжительность : 1 ч. 22 м.
Вид битрейта : Постоянный
Битрейт : 192 Кбит/сек
Каналы : 2 канала
Расположение каналов : Front: L R
Частота : 48,0 КГц
Метод сжатия : С потерями
Размер потока : 114 Мбайт (8%)
Выравнивание : Разделение по промежуткам
Продолжительность промежутка : 40 мс. (1,00 видеокадр)
Время предзагрузки промежутка : 500 мс.
--Качество: WEB-DLRip
Формат: AVI
Видео кодек: XviD
Аудио кодек: AC3
Видео: XviD, 2158 kbps, 720x400,25,000 кадров/сек
Аудио: AC3 2.0, 192 Кбит/сек,48,0 КГц--


Последний раз редактировалось: alisher198022 (2015-08-28 08:19), всего редактировалось 2 раз(а)

Создавать темы 14-Авг-2015 23:29

[Профиль]  [ЛС] 
Показать сообщения:    
Ответить на тему

Текущее время: 22-Ноя 15:42

Часовой пояс: UTC + 5



Вы не можете начинать темы
Вы не можете отвечать на сообщения
Вы не можете редактировать свои сообщения
Вы не можете удалять свои сообщения
Вы не можете голосовать в опросах
Вы не можете прикреплять файлы к сообщениям
Вы не можете скачивать файлы