Дочери Мнемозины / Rin: Daughters of Mnemosyne / Mnemosyne: no Musume-tachi (Уэда Сигэру) [TV Special] [6 из 6] [без хардсаба] [RUS(ext), JAP+SUB] [2008 г., мистика, ужасы, эротика, приключения, BDRip] [720p]

Страницы :  1, 2  След.

Ответить на тему
 

Razrushitel ®

Стаж: 4 года 4 месяца

Сообщений: 148

Симпатии: 42

Дочери Мнемозины
Mnemosyne: Mnemosyne no Musume-tachi
- Страна: Япония
Год выпуска: 2008
Выпуск: c 04.02.2008 по 07.07.2008
Жанр: мистика, ужасы, эротика, приключения
Тип: ТВ-спэшл
Продолжительность: 6 эпизодов по ~45 мин.-Режиссёр: Уэда Сигэру
Сценарий: Оноги Хироси
Студия: Xebec-Описание: Она молода, умна, красива и нашла интересную работу – частного детектива в не самом фешенебельном городском районе, прямо в духе американских «нуаров» 50-х. А еще Рин Асоги бессмертна – ведь в ее жилах течет кровь древних богов. Пусть Рин и ее сородичи родились не в горах Шотландии, но смысл их жизни тот же – рисковая игра с судьбой, ставка в которой – вечное существование, что с годами все больше в тягость.
Так что профессия частного детектива – отличная профилактика скуки, в чем вы легко убедитесь, посмотрев этот сериал. Ангелы и демоны, таинственные незнакомцы, сумасшедшие ученые, боссы якудза, зомби и наемные убийцы не дадут скучать никому!© Hollow, World Art--Информационные ссылки: AniDB || World Art || MAL--Качество: BDRip
Encode: Salender-raws || Re-encoded: Razrushitel
Тип видео: без хардсаба || Формат: mkv
Видео: x264 (Hi10p), 1280x720, ~500 Kbps, 23.976 fps
Аудио JAP: AC3, 48000Hz, ~128 Kbps, 2ch (в составе контейнера)
Аудио RUS: AC3, 48000Hz, ~128 Kbps, 2ch (внешними файлами)
Озвучка: многоголосая от MC Entertainment
Субтитры: Russian, ASS, (внешними файлами)
Перевод: Willy & Hollow
-

Список эпизодов

01. Cats Don't Laugh
02. Angels Don't Cry
03. Flowers Don't Shed Tears
04. Ghosts Don't Scream
05. Holy Nights Don't Shine Brightly
06. And Then, To The Door Of The Kingdom...

Скриншоты

Отличия

1080p VS 720p

Подробные тех. данные

Общее
Уникальный идентификатор                 : 210780493222887138350382142051229749042 (0x9E92D8AAFCE114E29DEE6453E541CF32)
Полное имя                               : E:\*****\Mnemosyne no Musume-tachi [BD] [720p]\Mnemosyne - Mnemosyne no Musume-tachi - 01 [Hi 10] [BD 720p].mkv
Формат                                   : Matroska
Версия формата                           : Version 2
Размер файла                             : 187 Мбайт
Продолжительность                        : 45 м. 32 c.
Общий поток                              : 573 Кбит/сек
Дата кодирования                         : UTC 2015-08-09 06:34:34
Программа кодирования                    : mkvmerge v7.7.0 ('Six Voices') 32bit built on Feb 28 2015 23:23:00
Библиотека кодирования                   : libebml v1.3.1 + libmatroska v1.4.2
_STATISTICS_WRITING_APP                  : mkvmerge v7.7.0 ('Six Voices') 32bit built on Feb 28 2015 23:23:00
_STATISTICS_WRITING_DATE_UTC             : 2015-08-09 06:34:34
_STATISTICS_TAGS                         : BPS DURATION NUMBER_OF_FRAMES NUMBER_OF_BYTES
DURATION                                 : 00:45:32.096000000
NUMBER_OF_FRAMES                         : 85378
NUMBER_OF_BYTES                          : 43713536
Видео
Идентификатор                            : 1
Формат                                   : AVC
Формат/Информация                        : Advanced Video Codec
Профиль формата                          : High 10@L3.1
Параметр CABAC формата                   : Да
Параметр ReFrames формата                : 4 кадра
Идентификатор кодека                     : V_MPEG4/ISO/AVC
Продолжительность                        : 45 м. 32 c.
Битрейт                                  : 434 Кбит/сек
Ширина                                   : 1280 пикселей
Высота                                   : 720 пикселей
Соотношение сторон                       : 16:9
Режим частоты кадров                     : Постоянный
Частота кадров                           : 23,976 кадра/сек
Цветовое пространство                    : YUV
Субдискретизация насыщенности            : 4:2:0
Битовая глубина                          : 10 бит
Тип развёртки                            : Прогрессивная
Бит/(Пиксели*Кадры)                      : 0.020
Размер потока                            : 141 Мбайт (76%)
Библиотека кодирования                   : x264 core 146 r2538 121396c
Настройки программы                      : cabac=1 / ref=3 / deblock=1:0:0 / analyse=0x3:0x113 / me=hex / subme=7 / psy=1 / psy_rd=1.00:0.00 / mixed_ref=1 / me_range=16 / chroma_me=1 / trellis=1 / 8x8dct=1 / cqm=0 / deadzone=21,11 / fast_pskip=1 / chroma_qp_offset=-2 / threads=3 / lookahead_threads=1 / sliced_threads=0 / nr=0 / decimate=1 / interlaced=0 / bluray_compat=0 / constrained_intra=0 / bframes=3 / b_pyramid=2 / b_adapt=1 / b_bias=0 / direct=1 / weightb=1 / open_gop=0 / weightp=2 / keyint=240 / keyint_min=23 / scenecut=40 / intra_refresh=0 / rc_lookahead=40 / rc=crf / mbtree=1 / crf=23.0 / qcomp=0.60 / qpmin=0 / qpmax=81 / qpstep=4 / ip_ratio=1.40 / aq=1:1.00
Default                                  : Да
Forced                                   : Нет
Аудио
Идентификатор                            : 2
Формат                                   : AC-3
Формат/Информация                        : Audio Coding 3
Расширение режима                        : CM (complete main)
Параметр Endianness формата              : Big
Идентификатор кодека                     : A_AC3
Продолжительность                        : 45 м. 32 c.
Вид битрейта                             : Постоянный
Битрейт                                  : 128 Кбит/сек
Каналы                                   : 2 канала
Расположение каналов                     : Front: L R
Частота                                  : 48,0 КГц
Битовая глубина                          : 16 бит
Метод сжатия                             : С потерями
Размер потока                            : 41,7 Мбайт (22%)
Язык                                     : Japanese
Default                                  : Да
Forced                                   : Нет

Создавать темы 15-Авг-2015 03:06

[Профиль]  [ЛС] 

Alex_38

Стаж: 5 лет 7 месяцев

Сообщений: 336

Симпатии: 37

Shigayev.Rustam.1997, критику высказать?) хД

Создавать темы 15-Авг-2015 04:22

[Профиль]  [ЛС] 

Razrushitel ®

Стаж: 4 года 4 месяца

Сообщений: 148

Симпатии: 42

Alex_38, давай хД

Создавать темы 15-Авг-2015 05:15

[Профиль]  [ЛС] 

kartwright

Стаж: 2 года 7 месяцев

Сообщений: 35

Симпатии: 9

Shigayev.Rustam.1997, местный Агленн хд

Создавать темы 15-Авг-2015 12:23

[Профиль]  [ЛС] 

LikeSmile

Стаж: 4 года 5 месяцев

Сообщений: 298

Симпатии: 48

947301~500 Kbps
Скорее, местный Hi10 :D

Создавать темы 15-Авг-2015 12:27

[Профиль]  [ЛС] 

Razrushitel ®

Стаж: 4 года 4 месяца

Сообщений: 148

Симпатии: 42

kartwright & LikeSmile, Минимализм рулит :D

Не открывать может шокировать

Скажу честно я всего лишь настроил свою прогу под "Настройки программы" (MI) с другого релиза одного чела, делал и с настройками от Hi10 (сайта) но конвертировать с теми настройками адЪ (ужасно долго и качество пропадает)

Создавать темы 15-Авг-2015 13:00

[Профиль]  [ЛС] 

Alex_38

Стаж: 5 лет 7 месяцев

Сообщений: 336

Симпатии: 37

Shigayev.Rustam.1997, такое ощущение, что релиз предназначен для HWP, но от него лишь есть одно отличие, формат.-

Не открывать может шокировать

Скажу честно я всего лишь настроил свою прогу под "Настройки программы" (MI) с другого релиза одного чела, делал и с настройками от Hi10 (сайта) но конвертировать с теми настройками адЪ (ужасно долго и качество пропадает)
Кого, меня чтоль?) хД
МиГуи вообще не годится для реэнкодинга, да и сомневаюсь, что пригодится при самом энкодинге...

Создавать темы 15-Авг-2015 14:38

[Профиль]  [ЛС] 

Razrushitel ®

Стаж: 4 года 4 месяца

Сообщений: 148

Симпатии: 42

947340Shigayev.Rustam.1997, такое ощущение, что релиз предназначен для HWP, но от него лишь есть одно отличие, формат.
Ваапше не знаю что такое HWP :)
947340Кого, меня чтоль?) хД
Неа не тебя)
947340МиГуи вообще не годится для реэнкодинга, да и сомневаюсь, что пригодится при самом энкодинге...
Ну... были ещё некоторые проги, но я в них так и не разобрался ;P а в МеГУИ хоть что-то понял :D-А какая годится для энкодинга/реэнкодинга?)

Создавать темы 15-Авг-2015 15:03

[Профиль]  [ЛС] 

Alex_38

Стаж: 5 лет 7 месяцев

Сообщений: 336

Симпатии: 37

При реэнкодинге всё зависит от пресета (ну и от проги соответственно). Прога, которую я использую очень удобна для реэнкодинга. В ней я заметил 3 вида ключа:
1. Значения которых должно совпадать с оригиналом
2. Значения которых можно изменять по собственному усмотрению
3. Значения которых лучше вообще не трогать с:-Вчера попробовал реэнкоднуть ОВАшку Дэйт э Лив. Пресет поставил плацебо и пошел смотреть футураму по телеку. Просмотрел 3 серии, энкод был уже готов, вот что получилось в итоге:

Скриншоты для сравнения (слева оригинал, справа реэнкод)



Тех. данные

Оригинал

General
Unique ID                   : 2544722052366518148982547683354991149 (0x1EA187BDE45BBF7D8E4AE4A94D1DA2D)
Complete name               : ***\Date a Live Encore 3 OVA [BD] [1080p]\Date a Live Encore 3 OVA (BD 1920x1080 x264 Hi10P FLAC).mkv
Format                      : Matroska
Format version              : Version 4 / Version 2
File size                   : 995 MiB
Duration                    : 29mn 57s
Overall bit rate mode       : Variable
Overall bit rate            : 4 642 Kbps
Writing application         : ShanaEncoder
Writing library             : ShanaEncoder
Video
ID                          : 1
Format                      : AVC
Format/Info                 : Advanced Video Codec
Format profile              : High 10@L4
Format settings, CABAC      : Yes
Format settings, ReFrames   : 4 frames
Codec ID                    : V_MPEG4/ISO/AVC
Duration                    : 29mn 57s
Width                       : 1 920 pixels
Height                      : 1 080 pixels
Display aspect ratio        : 16:9
Frame rate mode             : Constant
Frame rate                  : 23.976 fps
Color space                 : YUV
Chroma subsampling          : 4:2:0
Bit depth                   : 10 bits
Scan type                   : Progressive
Writing library             : x264 core 142
Encoding settings           : cabac=1 / ref=1 / deblock=1:0:0 / analyse=0x3:0x3 / me=dia / subme=1 / psy=1 / psy_rd=1.00:0.00 / mixed_ref=0 / me_range=16 / chroma_me=1 / trellis=0 / 8x8dct=1 / cqm=0 / deadzone=21,11 / fast_pskip=1 / chroma_qp_offset=0 / threads=3 / lookahead_threads=1 / sliced_threads=0 / nr=0 / decimate=1 / interlaced=0 / bluray_compat=0 / constrained_intra=0 / bframes=3 / b_pyramid=2 / b_adapt=1 / b_bias=0 / direct=1 / weightb=1 / open_gop=0 / weightp=1 / keyint=250 / keyint_min=23 / scenecut=40 / intra_refresh=0 / rc=crf / mbtree=0 / crf=22.0 / qcomp=0.60 / qpmin=0 / qpmax=81 / qpstep=4 / ip_ratio=1.40 / pb_ratio=1.30 / aq=1:1.00
Default                     : Yes
Forced                      : No
Audio
ID                          : 2
Format                      : FLAC
Format/Info                 : Free Lossless Audio Codec
Codec ID                    : A_FLAC
Duration                    : 29mn 57s
Bit rate mode               : Variable
Channel(s)                  : 2 channels
Sampling rate               : 44.1 KHz
Bit depth                   : 24 bits
Default                     : Yes
Forced                      : No

Реэнкод

General
Unique ID                   : 217178734490765280265871132634790462438 (0xA3631A515CBA955CB12730BD837383E6)
Complete name               : ***\Date A Live - Encore [BD] [720p]\Date a Live - Encore [BDrip 1280x720 x264 Vorbis].mkv
Format                      : Matroska
Format version              : Version 4 / Version 2
File size                   : 220 MiB
Duration                    : 29mn 57s
Overall bit rate mode       : Variable
Overall bit rate            : 1 027 Kbps
Encoded date                : UTC 2015-08-14 10:30:29
Writing application         : mkvmerge v6.6.0 ('The Edge Of The In Between') built on Dec 18 2013 23:19:42
Writing library             : libebml v1.3.0 + libmatroska v1.4.1
Video
ID                          : 1
Format                      : AVC
Format/Info                 : Advanced Video Codec
Format profile              : High 10@L3.1
Format settings, CABAC      : Yes
Format settings, ReFrames   : 4 frames
Codec ID                    : V_MPEG4/ISO/AVC
Duration                    : 29mn 57s
Bit rate                    : 751 Kbps
Width                       : 1 280 pixels
Height                      : 720 pixels
Display aspect ratio        : 16:9
Frame rate mode             : Constant
Frame rate                  : 23.976 fps
Color space                 : YUV
Chroma subsampling          : 4:2:0
Bit depth                   : 10 bits
Scan type                   : Progressive
Bits/(Pixel*Frame)          : 0.034
Stream size                 : 161 MiB (73%)
Writing library             : x264 core 148 r2579 73ae2d1
Encoding settings           : cabac=1 / ref=1 / deblock=1:0:0 / analyse=0x3:0x133 / me=dia / subme=1 / psy=1 / psy_rd=1.00:0.00 / mixed_ref=0 / me_range=16 / chroma_me=1 / trellis=0 / 8x8dct=1 / cqm=0 / deadzone=21,11 / fast_pskip=0 / chroma_qp_offset=0 / threads=3 / lookahead_threads=1 / sliced_threads=0 / nr=0 / decimate=0 / interlaced=0 / bluray_compat=0 / constrained_intra=0 / bframes=3 / b_pyramid=2 / b_adapt=1 / b_bias=0 / direct=2 / weightb=1 / open_gop=0 / weightp=1 / keyint=250 / keyint_min=23 / scenecut=40 / intra_refresh=0 / rc_lookahead=60 / rc=crf / mbtree=1 / crf=22.0 / qcomp=0.60 / qpmin=0 / qpmax=81 / qpstep=4 / ip_ratio=1.40 / aq=1:0.60
Default                     : Yes
Forced                      : No
Audio
ID                          : 2
Format                      : Vorbis
Format settings, Floor      : 1
Codec ID                    : A_VORBIS
Duration                    : 29mn 57s
Bit rate mode               : Variable
Bit rate                    : 256 Kbps
Channel(s)                  : 2 channels
Sampling rate               : 48.0 KHz
Compression mode            : Lossy
Stream size                 : 54.8 MiB (25%)
Writing library             : aoTuV 20110424 (UTC 2011-04-24)
Language                    : Japanese
Default                     : Yes
Forced                      : No
-
А какая годится для энкодинга/реэнкодинга?)
Юзаю х264, которая встроена во все эти энкодер проги, т.е. использую оригинал)

Создавать темы 15-Авг-2015 15:11

[Профиль]  [ЛС] 

Razrushitel ®

Стаж: 4 года 4 месяца

Сообщений: 148

Симпатии: 42

Хотеть эту прогу *_* можешь ссылкой одарить, а ещё лучше на ФО какое нибудь залить (дамп например) и ссыль в ЛС послать?)-Качество ОВАшки ооошень даже хорошо получилась) во всяком случае мне понравилась :)

Создавать темы 15-Авг-2015 15:40

[Профиль]  [ЛС] 

Alex_38

Стаж: 5 лет 7 месяцев

Сообщений: 336

Симпатии: 37

Хотеть эту прогу *_* можешь ссылкой одарить, а ещё лучше на ФО какое нибудь залить (дамп например) и ссыль в ЛС послать?)

Ответ

Nyet, это моя прелесть <3

Шутка

Конечно можно)

Ищи в ЛС) хД

Создавать темы 15-Авг-2015 15:52

[Профиль]  [ЛС] 

Razrushitel ®

Стаж: 4 года 4 месяца

Сообщений: 148

Симпатии: 42

947343Вчера попробовал реэнкоднуть ОВАшку Дэйт э Лив. Пресет поставил плацебо и пошел смотреть футураму по телеку. Просмотрел 3 серии, энкод был уже готов, вот что получилось в итоге:

Скриншоты для сравнения (слева оригинал, справа реэнкод)



Тех. данные

Оригинал

General
Unique ID                   : 2544722052366518148982547683354991149 (0x1EA187BDE45BBF7D8E4AE4A94D1DA2D)
Complete name               : ***\Date a Live Encore 3 OVA [BD] [1080p]\Date a Live Encore 3 OVA (BD 1920x1080 x264 Hi10P FLAC).mkv
Format                      : Matroska
Format version              : Version 4 / Version 2
File size                   : 995 MiB
Duration                    : 29mn 57s
Overall bit rate mode       : Variable
Overall bit rate            : 4 642 Kbps
Writing application         : ShanaEncoder
Writing library             : ShanaEncoder
Video
ID                          : 1
Format                      : AVC
Format/Info                 : Advanced Video Codec
Format profile              : High 10@L4
Format settings, CABAC      : Yes
Format settings, ReFrames   : 4 frames
Codec ID                    : V_MPEG4/ISO/AVC
Duration                    : 29mn 57s
Width                       : 1 920 pixels
Height                      : 1 080 pixels
Display aspect ratio        : 16:9
Frame rate mode             : Constant
Frame rate                  : 23.976 fps
Color space                 : YUV
Chroma subsampling          : 4:2:0
Bit depth                   : 10 bits
Scan type                   : Progressive
Writing library             : x264 core 142
Encoding settings           : cabac=1 / ref=1 / deblock=1:0:0 / analyse=0x3:0x3 / me=dia / subme=1 / psy=1 / psy_rd=1.00:0.00 / mixed_ref=0 / me_range=16 / chroma_me=1 / trellis=0 / 8x8dct=1 / cqm=0 / deadzone=21,11 / fast_pskip=1 / chroma_qp_offset=0 / threads=3 / lookahead_threads=1 / sliced_threads=0 / nr=0 / decimate=1 / interlaced=0 / bluray_compat=0 / constrained_intra=0 / bframes=3 / b_pyramid=2 / b_adapt=1 / b_bias=0 / direct=1 / weightb=1 / open_gop=0 / weightp=1 / keyint=250 / keyint_min=23 / scenecut=40 / intra_refresh=0 / rc=crf / mbtree=0 / crf=22.0 / qcomp=0.60 / qpmin=0 / qpmax=81 / qpstep=4 / ip_ratio=1.40 / pb_ratio=1.30 / aq=1:1.00
Default                     : Yes
Forced                      : No
Audio
ID                          : 2
Format                      : FLAC
Format/Info                 : Free Lossless Audio Codec
Codec ID                    : A_FLAC
Duration                    : 29mn 57s
Bit rate mode               : Variable
Channel(s)                  : 2 channels
Sampling rate               : 44.1 KHz
Bit depth                   : 24 bits
Default                     : Yes
Forced                      : No

Реэнкод

General
Unique ID                   : 217178734490765280265871132634790462438 (0xA3631A515CBA955CB12730BD837383E6)
Complete name               : ***\Date A Live - Encore [BD] [720p]\Date a Live - Encore [BDrip 1280x720 x264 Vorbis].mkv
Format                      : Matroska
Format version              : Version 4 / Version 2
File size                   : 220 MiB
Duration                    : 29mn 57s
Overall bit rate mode       : Variable
Overall bit rate            : 1 027 Kbps
Encoded date                : UTC 2015-08-14 10:30:29
Writing application         : mkvmerge v6.6.0 ('The Edge Of The In Between') built on Dec 18 2013 23:19:42
Writing library             : libebml v1.3.0 + libmatroska v1.4.1
Video
ID                          : 1
Format                      : AVC
Format/Info                 : Advanced Video Codec
Format profile              : High 10@L3.1
Format settings, CABAC      : Yes
Format settings, ReFrames   : 4 frames
Codec ID                    : V_MPEG4/ISO/AVC
Duration                    : 29mn 57s
Bit rate                    : 751 Kbps
Width                       : 1 280 pixels
Height                      : 720 pixels
Display aspect ratio        : 16:9
Frame rate mode             : Constant
Frame rate                  : 23.976 fps
Color space                 : YUV
Chroma subsampling          : 4:2:0
Bit depth                   : 10 bits
Scan type                   : Progressive
Bits/(Pixel*Frame)          : 0.034
Stream size                 : 161 MiB (73%)
Writing library             : x264 core 148 r2579 73ae2d1
Encoding settings           : cabac=1 / ref=1 / deblock=1:0:0 / analyse=0x3:0x133 / me=dia / subme=1 / psy=1 / psy_rd=1.00:0.00 / mixed_ref=0 / me_range=16 / chroma_me=1 / trellis=0 / 8x8dct=1 / cqm=0 / deadzone=21,11 / fast_pskip=0 / chroma_qp_offset=0 / threads=3 / lookahead_threads=1 / sliced_threads=0 / nr=0 / decimate=0 / interlaced=0 / bluray_compat=0 / constrained_intra=0 / bframes=3 / b_pyramid=2 / b_adapt=1 / b_bias=0 / direct=2 / weightb=1 / open_gop=0 / weightp=1 / keyint=250 / keyint_min=23 / scenecut=40 / intra_refresh=0 / rc_lookahead=60 / rc=crf / mbtree=1 / crf=22.0 / qcomp=0.60 / qpmin=0 / qpmax=81 / qpstep=4 / ip_ratio=1.40 / aq=1:0.60
Default                     : Yes
Forced                      : No
Audio
ID                          : 2
Format                      : Vorbis
Format settings, Floor      : 1
Codec ID                    : A_VORBIS
Duration                    : 29mn 57s
Bit rate mode               : Variable
Bit rate                    : 256 Kbps
Channel(s)                  : 2 channels
Sampling rate               : 48.0 KHz
Compression mode            : Lossy
Stream size                 : 54.8 MiB (25%)
Writing library             : aoTuV 20110424 (UTC 2011-04-24)
Language                    : Japanese
Default                     : Yes
Forced                      : No

Просто не удержался ;P

МеГУИ с теми же самыми настройками что и Мнемозины) заэнкодил чуть меньше чем 30 минут) Пресет медиум))-

Скрины реэнкода (оригиналы у тебя есть ;)

Тех. данные

General
Unique ID                      : 202957724639585954108780625270432574899 (0x98B03C6617AD6D70B36412416A43ADB3)
Complete name                  : C:\Users\Razrushitel\Videos\Date a Live Encore 3 OVA (BD 1280x720 x264 Hi10P AC-3).mkv
Format                         : Matroska
Format version                 : Version 2
File size                      : 134 MiB
Duration                       : 29mn 57s
Overall bit rate               : 627 Kbps
Encoded date                   : UTC 2015-08-15 11:12:11
Writing application            : mkvmerge v7.7.0 ('Six Voices') 32bit built on Feb 28 2015 23:23:00
Writing library                : libebml v1.3.1 + libmatroska v1.4.2
_STATISTICS_WRITING_APP        : mkvmerge v7.7.0 ('Six Voices') 32bit built on Feb 28 2015 23:23:00
_STATISTICS_WRITING_DATE_UTC   : 2015-08-15 11:12:11
_STATISTICS_TAGS               : BPS DURATION NUMBER_OF_FRAMES NUMBER_OF_BYTES
DURATION                       : 00:29:57.085000000
NUMBER_OF_FRAMES               : 51596
NUMBER_OF_BYTES                : 28753360
Video
ID                             : 1
Format                         : AVC
Format/Info                    : Advanced Video Codec
Format profile                 : High 10@L3.1
Format settings, CABAC         : Yes
Format settings, ReFrames      : 4 frames
Codec ID                       : V_MPEG4/ISO/AVC
Duration                       : 29mn 57s
Bit rate                       : 486 Kbps
Width                          : 1 280 pixels
Height                         : 720 pixels
Display aspect ratio           : 16:9
Frame rate mode                : Constant
Frame rate                     : 23.976 fps
Color space                    : YUV
Chroma subsampling             : 4:2:0
Bit depth                      : 10 bits
Scan type                      : Progressive
Bits/(Pixel*Frame)             : 0.022
Stream size                    : 104 MiB (78%)
Writing library                : x264 core 146 r2538 121396c
Encoding settings              : cabac=1 / ref=3 / deblock=1:0:0 / analyse=0x3:0x113 / me=hex / subme=7 / psy=1 / psy_rd=1.00:0.00 / mixed_ref=1 / me_range=16 / chroma_me=1 / trellis=1 / 8x8dct=1 / cqm=0 / deadzone=21,11 / fast_pskip=1 / chroma_qp_offset=-2 / threads=3 / lookahead_threads=1 / sliced_threads=0 / nr=0 / decimate=1 / interlaced=0 / bluray_compat=0 / constrained_intra=0 / bframes=3 / b_pyramid=2 / b_adapt=1 / b_bias=0 / direct=1 / weightb=1 / open_gop=0 / weightp=2 / keyint=240 / keyint_min=23 / scenecut=40 / intra_refresh=0 / rc_lookahead=40 / rc=crf / mbtree=1 / crf=23.0 / qcomp=0.60 / qpmin=0 / qpmax=81 / qpstep=4 / ip_ratio=1.40 / aq=1:1.00
Default                        : Yes
Forced                         : No
Audio
ID                             : 2
Format                         : AC-3
Format/Info                    : Audio Coding 3
Mode extension                 : CM (complete main)
Format settings, Endianness    : Big
Codec ID                       : A_AC3
Duration                       : 29mn 57s
Bit rate mode                  : Constant
Bit rate                       : 128 Kbps
Channel(s)                     : 2 channels
Channel positions              : Front: L R
Sampling rate                  : 44.1 KHz
Compression mode               : Lossy
Stream size                    : 27.4 MiB (20%)
Language                       : Japanese
Default                        : Yes
Forced                         : No
-
947347

Ответ

Nyet, это моя прелесть <3

Шутка

Конечно можно)

Ищи в ЛС) хД
Эта фишка со спойлерами мне никогда не надоест XD

Создавать темы 15-Авг-2015 16:35

[Профиль]  [ЛС] 

Alex_38

Стаж: 5 лет 7 месяцев

Сообщений: 336

Симпатии: 37

Просто не удержался ;P

МеГУИ с теми же самыми настройками что и Мнемозины) заэнкодил чуть меньше чем 30 минут) Пресет медиум))-

Скрины реэнкода (оригиналы у тебя есть ;)

Тех. данные

General
Unique ID                      : 202957724639585954108780625270432574899 (0x98B03C6617AD6D70B36412416A43ADB3)
Complete name                  : C:\Users\Razrushitel\Videos\Date a Live Encore 3 OVA (BD 1280x720 x264 Hi10P AC-3).mkv
Format                         : Matroska
Format version                 : Version 2
File size                      : 134 MiB
Duration                       : 29mn 57s
Overall bit rate               : 627 Kbps
Encoded date                   : UTC 2015-08-15 11:12:11
Writing application            : mkvmerge v7.7.0 ('Six Voices') 32bit built on Feb 28 2015 23:23:00
Writing library                : libebml v1.3.1 + libmatroska v1.4.2
_STATISTICS_WRITING_APP        : mkvmerge v7.7.0 ('Six Voices') 32bit built on Feb 28 2015 23:23:00
_STATISTICS_WRITING_DATE_UTC   : 2015-08-15 11:12:11
_STATISTICS_TAGS               : BPS DURATION NUMBER_OF_FRAMES NUMBER_OF_BYTES
DURATION                       : 00:29:57.085000000
NUMBER_OF_FRAMES               : 51596
NUMBER_OF_BYTES                : 28753360
Video
ID                             : 1
Format                         : AVC
Format/Info                    : Advanced Video Codec
Format profile                 : High 10@L3.1
Format settings, CABAC         : Yes
Format settings, ReFrames      : 4 frames
Codec ID                       : V_MPEG4/ISO/AVC
Duration                       : 29mn 57s
Bit rate                       : 486 Kbps
Width                          : 1 280 pixels
Height                         : 720 pixels
Display aspect ratio           : 16:9
Frame rate mode                : Constant
Frame rate                     : 23.976 fps
Color space                    : YUV
Chroma subsampling             : 4:2:0
Bit depth                      : 10 bits
Scan type                      : Progressive
Bits/(Pixel*Frame)             : 0.022
Stream size                    : 104 MiB (78%)
Writing library                : x264 core 146 r2538 121396c
Encoding settings              : cabac=1 / ref=3 / deblock=1:0:0 / analyse=0x3:0x113 / me=hex / subme=7 / psy=1 / psy_rd=1.00:0.00 / mixed_ref=1 / me_range=16 / chroma_me=1 / trellis=1 / 8x8dct=1 / cqm=0 / deadzone=21,11 / fast_pskip=1 / chroma_qp_offset=-2 / threads=3 / lookahead_threads=1 / sliced_threads=0 / nr=0 / decimate=1 / interlaced=0 / bluray_compat=0 / constrained_intra=0 / bframes=3 / b_pyramid=2 / b_adapt=1 / b_bias=0 / direct=1 / weightb=1 / open_gop=0 / weightp=2 / keyint=240 / keyint_min=23 / scenecut=40 / intra_refresh=0 / rc_lookahead=40 / rc=crf / mbtree=1 / crf=23.0 / qcomp=0.60 / qpmin=0 / qpmax=81 / qpstep=4 / ip_ratio=1.40 / aq=1:1.00
Default                        : Yes
Forced                         : No
Audio
ID                             : 2
Format                         : AC-3
Format/Info                    : Audio Coding 3
Mode extension                 : CM (complete main)
Format settings, Endianness    : Big
Codec ID                       : A_AC3
Duration                       : 29mn 57s
Bit rate mode                  : Constant
Bit rate                       : 128 Kbps
Channel(s)                     : 2 channels
Channel positions              : Front: L R
Sampling rate                  : 44.1 KHz
Compression mode               : Lossy
Stream size                    : 27.4 MiB (20%)
Language                       : Japanese
Default                        : Yes
Forced                         : No
Не делай так) Отличия заметны)

Создавать темы 15-Авг-2015 17:50

[Профиль]  [ЛС] 

Razrushitel ®

Стаж: 4 года 4 месяца

Сообщений: 148

Симпатии: 42

Alex_38, Во втором скрине действительно отличия сильно заметны... над будет свои настройки как-нибудь придумать... если получится...

Создавать темы 15-Авг-2015 18:01

[Профиль]  [ЛС] 

Alex_38

Стаж: 5 лет 7 месяцев

Сообщений: 336

Симпатии: 37

947327Shigayev.Rustam.1997, местный Агленн хд
Этим человеком скорее всего буду я) хД

Создавать темы 15-Авг-2015 18:59

[Профиль]  [ЛС] 
Показать сообщения:    
Ответить на тему

Текущее время: 23-Окт 09:16

Часовой пояс: UTC + 5



Вы не можете начинать темы
Вы не можете отвечать на сообщения
Вы не можете редактировать свои сообщения
Вы не можете удалять свои сообщения
Вы не можете голосовать в опросах
Вы не можете прикреплять файлы к сообщениям
Вы не можете скачивать файлы