Ад на колёсах / Hell on Wheels / Сезон: 5 / Серии: 14 из 14 (Дэвид Фон Энкен, Адам Дэвидсон, Джон Шибан) [2015, Вестерн, драма, WEB-DLRip] MVO (LostFilm)

Ответить на тему
 

Mamutov ®

Стаж: 4 года 11 месяцев

Сообщений: 255

Симпатии: 144

-Ад на колёсах / Hell on Wheels- Год выпуска: 2015
Страна: США
Жанр: Вестерн, драма
Продолжительность: 00:43:00
Перевод: Профессиональный (многоголосый закадровый) Lostfilm-Режиссёр: Дэвид Фон Энкен, Адам Дэвидсон, Джон Шибан-В ролях: Энсон Маунт, Колм Мини, Коммон, Доминик МакЭллигот, Том Нунен, Эдди Спирс, Кристофер Хейердал, Робин МакЛиви, Каша Кропински, Бен Эслер, Фил Бурк, Дункан Оллереншоу, Дон Норвуд, Джефф Хэнни, Эйприл Телек, Диего Диабло Дель Мар, Крис Ипполито, Грейнджер Хайнс, Ти Олссон и др.
-Описание: В центре сюжета вестерна — бывший солдат Конфедерации Каллен Боханнан, решительно намеренный отомстить за изнасилование и смерть своей любимой жены, выследив и убив солдат Союза, которые сделали это. В итоге он оказывается в Небраске, на одном из участков строительства трансконтинентальной железной дороги.
-Релиз от: LostFilm-Качество: WEB-DLRip
Формат: AVI
Видео кодек: XviD
Аудио кодек: MP3
Видео: XVID, 720x400 (16:9), 23.976 fps, ~1272 kbps avg, 0.184
Аудио: Rus: MP3, 48.0 KHz, 2 channels, 192.00 kbps avg

MediaInfo

General
Complete name : F:\Ад на колесах (Сезон 5) LostFilm\Hell.On.Wheels.S05E01.rus.LostFilm.avi
Format : AVI
Format/Info : Audio Video Interleave
File size : 455 MiB
Duration : 43mn 10s
Overall bit rate mode : Variable
Overall bit rate : 1 473 Kbps
Writing application : Nandub v1.0rc2
Writing library : Nandub build 1853/release
Video
ID : 0
Format : MPEG-4 Visual
Format profile : Advanced [email protected]
Format settings, BVOP : No
Format settings, QPel : No
Format settings, GMC : No warppoints
Format settings, Matrix : Default (H.263)
Codec ID : XVID
Codec ID/Hint : XviD
Duration : 43mn 10s
Bit rate : 1 272 Kbps
Width : 720 pixels
Height : 400 pixels
Display aspect ratio : 16:9
Frame rate : 23.976 fps
Color space : YUV
Chroma subsampling : 4:2:0
Bit depth : 8 bits
Scan type : Progressive
Compression mode : Lossy
Bits/(Pixel*Frame) : 0.184
Stream size : 393 MiB (86%)
Writing library : XviD 1.2.1 (UTC 2008-12-04)
Audio
ID : 1
Format : MPEG Audio
Format version : Version 1
Format profile : Layer 3
Mode : Joint stereo
Mode extension : MS Stereo
Codec ID : 55
Codec ID/Hint : MP3
Duration : 43mn 10s
Bit rate mode : Variable
Bit rate : 192 Kbps
Channel count : 2 channels
Sampling rate : 48.0 KHz
Compression mode : Lossy
Stream size : 58.0 MiB (13%)
Alignment : Aligned on interleaves
Interleave, duration : 24 ms (0.58 video frame)
Interleave, preload duration : 482 ms
Writing library : LAME3.97b
Encoding settings : -m j -V 4 -q 3 -lowpass 18.6 --abr 192

Скриншоты




Последний раз редактировалось: Mamutov (2016-08-05 12:14), всего редактировалось 5 раз(а)

Создавать темы 15-Авг-2015 09:34

[Профиль]  [ЛС] 

Mamutov ®

Стаж: 4 года 11 месяцев

Сообщений: 255

Симпатии: 144

5 серия

Создавать темы 20-Авг-2015 20:11

[Профиль]  [ЛС] 

Mamutov ®

Стаж: 4 года 11 месяцев

Сообщений: 255

Симпатии: 144

6-7 серий

Создавать темы 18-Сен-2015 01:26

[Профиль]  [ЛС] 

Mamutov ®

Стаж: 4 года 11 месяцев

Сообщений: 255

Симпатии: 144

добавлено 8 - 9 серия

Создавать темы 23-Июн-2016 08:07

[Профиль]  [ЛС] 

Mamutov ®

Стаж: 4 года 11 месяцев

Сообщений: 255

Симпатии: 144

добавлено 10 серия

Создавать темы 30-Июн-2016 22:57

[Профиль]  [ЛС] 

Mamutov ®

Стаж: 4 года 11 месяцев

Сообщений: 255

Симпатии: 144

11 серия

Создавать темы 08-Июл-2016 00:25

[Профиль]  [ЛС] 

Mamutov ®

Стаж: 4 года 11 месяцев

Сообщений: 255

Симпатии: 144

добавлено все серий конец сезона

Создавать темы 05-Авг-2016 12:15

[Профиль]  [ЛС] 
Показать сообщения:    
Ответить на тему

Текущее время: 12-Дек 09:43

Часовой пояс: UTC + 5



Вы не можете начинать темы
Вы не можете отвечать на сообщения
Вы не можете редактировать свои сообщения
Вы не можете удалять свои сообщения
Вы не можете голосовать в опросах
Вы не можете прикреплять файлы к сообщениям
Вы не можете скачивать файлы