6 способов умереть / 6 Ways to Sundown (Надим Сума) [2015, США / Formula Features, боевик, триллер, криминал,WEB-DLRip] (DVO : Enigma/[Savetig Studios]) (Original Eng)

Ответить на тему
 

Сергей74 ®

Стаж: 2 года 7 месяцев

Сообщений: 211

Симпатии: 293

6 способов умереть / 6 Ways to Sundown
Страна: США / Formula Features
Жанр: боевик, триллер, криминал
Год выпуска: 2015
Продолжительность: 01:43:31
Перевод: Любительский (двухголосый закадровый) , Enigma/[Savetig Studios]
Cубтитры: нет
Оригинальная аудиодорожка: английский
Режиссер: Надим Сума
В ролях: Винни Джонс, Майкл Рене Уолтон, Вивика А. Фокс, Том Сайзмор, Бай Лин, Доминик Суэйн, Melissa Mars, Питер Добсон, Крис Джай Алекс, Хосе Росете
Описание: Джон Доу человек-загадка. Его личность и история неизвестны. Его цель уничтожить наркодиллера Сонни Гарсия. Но прежде, чем он сделает это, он хочет, чтобы Сонни почувствовал все, что он чувствовал, выстрадал все, что он страдал и потерял все, что он потерял. Джон Доу нанимает 6 преступников с индивидуальными способностями, для выполнения своего плана. Джон хочет 6 вещей, взятых от Сонни: его свободу, его любовь, его репутацию, его самое ценное достояние, деньги и, наконец его жизнь. Жизнь Сонни быстро и эффективно превратилась в сущий ад. Его банковский счет уничтожен. Его жена исчезает. Его преданность ставится под сомнение. Но это только начало.
Качество видео: WEB-DLRip [Рип с WEB-DL 720p]
Формат видео: AVI
Видео: XviD,1607 kb/s, 720x304
Аудио: AC3, 192 kb/s (2 ch) Russian
Аудио 2: AC3, 192 kb/s (2 ch) English

 

MediaInfo

General
Complete name : D:\ФИЛЬМЫ\6.sposobov.umeret.2015.L2.WEB-DLRip.avi
Format : AVI
Format/Info : Audio Video Interleave
File size : 1.45 GiB
Duration : 1h 43mn
Overall bit rate : 2 006 Kbps
Writing application : VirtualDubMod 1.5.10.3 | www.virtualdub-fr.org || (build 2550/release)
Writing library : VirtualDubMod build 2550/release
Video
ID : 0
Format : MPEG-4 Visual
Format profile : Advanced [email protected]
Format settings, BVOP : 1
Format settings, QPel : No
Format settings, GMC : No warppoints
Format settings, Matrix : Custom
Codec ID : XVID
Codec ID/Hint : XviD
Duration : 1h 43mn
Bit rate : 1 607 Kbps
Width : 720 pixels
Height : 304 pixels
Display aspect ratio : 2.35:1
Frame rate : 23.976 fps
Color space : YUV
Chroma subsampling : 4:2:0
Bit depth : 8 bits
Scan type : Progressive
Compression mode : Lossy
Bits/(Pixel*Frame) : 0.306
Stream size : 1.16 GiB (80%)
Writing library : XviD 73
Audio #1
ID : 1
Format : AC-3
Format/Info : Audio Coding 3
Mode extension : CM (complete main)
Format settings, Endianness : Big
Codec ID : 2000
Duration : 1h 43mn
Bit rate mode : Constant
Bit rate : 192 Kbps
Channel(s) : 2 channels
Channel positions : Front: L R
Sampling rate : 48.0 KHz
Compression mode : Lossy
Stream size : 142 MiB (10%)
Alignment : Split accross interleaves
Interleave, duration : 42 ms (1.00 video frame)
Interleave, preload duratio : 500 ms
Audio #2
ID : 2
Format : AC-3
Format/Info : Audio Coding 3
Mode extension : CM (complete main)
Format settings, Endianness : Big
Codec ID : 2000
Duration : 1h 43mn
Bit rate mode : Constant
Bit rate : 192 Kbps
Channel(s) : 2 channels
Channel positions : Front: L R
Sampling rate : 48.0 KHz
Compression mode : Lossy
Stream size : 142 MiB (10%)
Alignment : Split accross interleaves
Interleave, duration : 42 ms (1.00 video frame)
Interleave, preload duratio : 500 ms

Скриншот c названием фильма

Скриншоты






Создавать темы 15-Авг-2015 12:47

[Профиль]  [ЛС] 

Сергей74 ®

Стаж: 2 года 7 месяцев

Сообщений: 211

Симпатии: 293

aa

Создавать темы 15-Авг-2015 12:58

[Профиль]  [ЛС] 
Показать сообщения:    
Ответить на тему

Текущее время: 23-Ноя 06:37

Часовой пояс: UTC + 5



Вы не можете начинать темы
Вы не можете отвечать на сообщения
Вы не можете редактировать свои сообщения
Вы не можете удалять свои сообщения
Вы не можете голосовать в опросах
Вы не можете прикреплять файлы к сообщениям
Вы не можете скачивать файлы