Мистер Икс / Mr. X (Викрам Бхатт / Vikram Bhatt) [2015, Индия, Боевик, фантастика, триллер, DVDRip-AVC] (MVO : Гараж-Дубляж) (Sub Rus)

Ответить на тему
 

}{@ttabi4 ®

Стаж: 6 лет 7 месяцев

Сообщений: 139

Симпатии: 29

Мистер Икс / Mr. X- -Страна: Индия
Жанр: Боевик, фантастика, триллер
Год выпуска: 2015
Продолжительность: 02:05:05
-Перевод: Любительский (многоголосый закадровый) Доп. инфо о переводе Гараж-Дубляж
Cубтитры: Русские (только для песен)
Режиссер: Викрам Бхатт / Vikram Bhatt
-В ролях: Эмран Хашми, Амира Дастур, Арунодай Синкх, Нора Фатехи, Шрути Улфат, С.М. Захир, Гурмит Чаудхари (камео)-Описание: Хороший и честный полицейский — Рагхурам Ратод, чудом смог остаться живым во время взрыва. Однако этот взрыв дал невероятные последствия, у Рагхура появилась новая способность, он теперь мог становиться абсолютно прозрачным и не видимым для всех. Решив использовать свою новую возможность во благо, Рагхур решает отыскать и придать правосудию тех, кто виновен в этом страшном взрыве.-Доп. информация: Перевод и редакция: Honey&Haseena-Качество видео: DVDRip-AVC
Формат видео: AVI
-Видео: MPEG4, XviD, 720x304 (2.35), 23,976 fps, 1 466 Kbps (0.279 bit/pixel)
Аудио: МР3, 48.0 KHz, 2 ch, 192 Кбит/с
Формат субтитров: softsub (SRT)
--

MediaInfo

Общее
Полное имя : C:\Mister.X.2015.ГаражДубляж.HoneyHaseena\Mister.X.2015.ГаражДубляж.HoneyHaseena.avi
Формат : AVI
Формат/Информация : Audio Video Interleave
Профиль формата : OpenDML
Размер файла : 1,46 Гбайт
Продолжительность : 2 ч. 5 м.
Общий поток : 1673 Кбит/сек
Программа кодирования : Lavf54.63.104
Видео
Идентификатор : 0
Формат : MPEG-4 Visual
Профайл формата : Advanced [email protected]
Параметры BVOP формата : Да
Параметры QPel формата : Нет
Параметры GMC формата : Без точки перехода
Параметры матрицы формата : Default (MPEG)
Идентификатор кодека : XVID
Идентификатор кодека/Подсказка : XviD
Продолжительность : 2 ч. 5 м.
Битрейт : 1466 Кбит/сек
Ширина : 720 пикселей
Высота : 304 пикселя
Соотношение сторон : 2,35:1
Частота кадров : 23,976 кадра/сек
Бит/(Пиксели*Кадры) : 0.279
Размер потока : 1,28 Гбайт (88%)
Библиотека кодирования : XviD 1.2.1 (UTC 2008-12-04)
Аудио
Идентификатор : 1
Формат : MPEG Audio
Версия формата : Version 1
Профиль формата : Layer 3
Режим : Joint stereo
Расширение режима : MS Stereo
Идентификатор кодека : 55
Идентификатор кодека/Подсказка : MP3
Продолжительность : 2 ч. 5 м.
Вид битрейта : Постоянный
Битрейт : 192 Кбит/сек
Каналы : 2 канала
Частота : 48,0 КГц
BitDepth/String : 16 бит
Размер потока : 172 Мбайт (11%)
Выравнивание : Соединение по промежуткам
Продолжительность промежутка : 24 мс. (0,58 видеокадр)
Библиотека кодирования : LAME3.99.5
Общее
Полное имя : C:\Mister.X.2015.ГаражДубляж.HoneyHaseena\Mister.X.2015.ГаражДубляж.HoneyHaseena.srt
Формат : SubRip
Размер файла : 12,6 Кбайт
Текст
Формат : SubRip

Скриншот c названием фильма

Скриншоты






Создавать темы 15-Авг-2015 14:03

[Профиль]  [ЛС] 
Показать сообщения:    
Ответить на тему

Текущее время: 18-Дек 02:37

Часовой пояс: UTC + 5



Вы не можете начинать темы
Вы не можете отвечать на сообщения
Вы не можете редактировать свои сообщения
Вы не можете удалять свои сообщения
Вы не можете голосовать в опросах
Вы не можете прикреплять файлы к сообщениям
Вы не можете скачивать файлы