Габбар вернулся / Gabbar is Back (Радха Кришна Джагарламуди / Radha Krishna Jagarlamudi) [2015, Индия, Боевик, драма, криминал, DVDRip-AVC] (DVO : DeadSno & den904) (Sub Rus)

Ответить на тему
 

}{@ttabi4 ®

Стаж: 6 лет 4 месяца

Сообщений: 139

Симпатии: 29

-Габбар вернулся / Gabbar is Back-- Страна: Индия
Жанр: Боевик, драма, криминал
Год выпуска: 2015
Продолжительность: 02:03:27-Перевод: Любительский (двухголосый закадровый) Доп. инфо о переводе DeadSno & den904
Cубтитры: русские (на песни)
Режиссер: Радха Кришна Джагарламуди / Radha Krishna Jagarlamudi-В ролях: Акшай Кумар, Шрути Хасан, Сунил Гроувер, Суман, Карина Капур, Ишита Вьяс, Шрути Бапна, Джайдип Ахлават, Радж Сингх, Арора, Правина Дешпанде, Нарендра Джейтли, Читрангада Сингх-Описание: В стране, где правят алчность и коррупция, нет места мольбам и жалобам. Именно несправедливость и беззаконие породили в простом профессоре Адитье сурового и жестокого Габбара - заступника правды и честности. Вселив страх в сердце каждого нечистого на руку чиновника, он решает своими крайне жесткими мерами очистить город от грязи. Неожиданно, на пути Габбара появляется зло в лице влиятельного бизнесмена Дигвиджая Патиля, с которым ему предстоит битва не на жизнь, а на смерть...(с) HASEENA-Доп. информация:
Озвучка: DeadSno & den904 (спасибо)
Перевод и редакция: Honey&Haseena (спасибо)
Переведено и озвучено по заказу Асии Рамазановой (спасибо)-Качество видео: DVDRip-AVC
Формат видео: AVI-Видео: 720x304 (2.37:1), 23.976 fps, XviD build 64 ~1506 kbps avg, 0.29 bit/pixel
Аудио: 48 kHz, MPEG Layer 3, 2 ch, ~192.00 kbps

MediaInfo

General
Complete name : D:\RELEASES\GabbarIsBack.2015.Kolobok.HoneyHaseena\GabbarIsBack.2015.Kolobok.HoneyHaseena.avi
Format : AVI
Format/Info : Audio Video Interleave
Format profile : OpenDML
File size : 1.47 GiB
Duration : 2h 3mn
Overall bit rate : 1 705 Kbps
Writing application : XviD4PSP 7.0 / 55.33.100
Comment : MATROSKA,WEBM > AVI DVD Player 720x / H264 > XVID VBR 1500kbps HQ / AC3 > MP3 CBR 192kbps HQ
Video
ID : 0
Format : MPEG-4 Visual
Format profile : Advanced [email protected]
Format settings, BVOP : 1
Format settings, QPel : No
Format settings, GMC : No warppoints
Format settings, Matrix : Default (H.263)
Codec ID : XVID
Codec ID/Hint : XviD
Duration : 2h 3mn
Bit rate : 1 499 Kbps
Width : 720 pixels
Height : 304 pixels
Display aspect ratio : 2.35:1
Frame rate : 23.976 fps
Color space : YUV
Chroma subsampling : 4:2:0
Bit depth : 8 bits
Scan type : Progressive
Compression mode : Lossy
Bits/(Pixel*Frame) : 0.286
Stream size : 1.29 GiB (88%)
Title : Poker DrC
Writing library : XviD 64
Audio
ID : 1
Format : MPEG Audio
Format version : Version 1
Format profile : Layer 3
Mode : Joint stereo
Mode extension : MS Stereo
Codec ID : 55
Codec ID/Hint : MP3
Duration : 2h 3mn
Bit rate mode : Constant
Bit rate : 192 Kbps
Channel(s) : 2 channels
Sampling rate : 48.0 KHz
Compression mode : Lossy
Stream size : 170 MiB (11%)
Alignment : Aligned on interleaves
Interleave, duration : 24 ms (0.58 video frame)
Interleave, preload duratio : 24 ms
Writing library : LAME3.99.4

Скриншот c названием фильма

Скриншоты




- -

Создавать темы 15-Авг-2015 19:11

[Профиль]  [ЛС] 
Показать сообщения:    
Ответить на тему

Текущее время: 20-Сен 01:49

Часовой пояс: UTC + 5



Вы не можете начинать темы
Вы не можете отвечать на сообщения
Вы не можете редактировать свои сообщения
Вы не можете удалять свои сообщения
Вы не можете голосовать в опросах
Вы не можете прикреплять файлы к сообщениям
Вы не можете скачивать файлы