Слава / Fame (Кевин Танчароэн) [2009, США, драма, мелодрама, комедия, мюзикл, HDRip] (Dub) (Original Eng)

Ответить на тему
 

Ulmas Umarov ®

Стаж: 2 года 7 месяцев

Сообщений: 4

Симпатии: 9

Слава / Fame
Страна: США
Жанр: драма, мелодрама, комедия, мюзикл
Год выпуска: 2009
Продолжительность: 01:47:00

Перевод: Профессиональный (дублированный)
Cубтитры: нет
Оригинальная аудиодорожка: английский

Режиссер: Кевин Танчароэн

В ролях: Кей Панабэйкер, Уолтер Перес, Нэтари Наутон, Ашер Монро, Керингтон Пэйн, Коллинс Пенни, Кристи Флорес, Пол МакГилл, Биби Ньювирт, Пол Яконо
Описание: В престижной Нью-йоркской школе искусства студенты из всех слоев общества, будущие танцоры, певцы, актеры и художники, получают шанс осуществить свои мечты, но только талант, одержимость и непомерный труд могут привести их к славе.

Доп. информация: сценарий: Эллисон Барнетт, Кристофер Гор
продюсер: Марк Кантон, Гари Лучези, Том Розенберг
оператор: Скотт Кеван
композитор: Марк Айшем
бюджет: $18 000 000
сборы в США: $22 452 209

сборы в мире:
+ $54 756 326 = $77 208 535

Качество видео: HDRip
Формат видео: AVI

Видео: Xvid 720x304 25fps 1 640 Kbps YUV
Аудио: Dolby AC3 48000Hz 6ch 384kbps

MediaInfo

General
Complete name : C:\Users\ulmas\Downloads\Видео\fame.avi
Format : AVI
Format/Info : Audio Video Interleave
File size : 1.46 GiB
Duration : 1h 42mn
Overall bit rate : 2 033 Kbps
Movie name : Слава / Fame
Director : vasapel
Genre : комедия, мелодрама, драма, мю
Writing application : VirtualDubMod 1.5.10.2 (build 2540/release)
Original source form/Name : Movie
Copyright : AllFilms
Comment : 2009 год / Бюджет: $18 000 000
Video
ID : 0
Format : MPEG-4 Visual
Format profile : Advanced [email protected]
Format settings, BVOP : Yes
Format settings, QPel : No
Format settings, GMC : No warppoints
Format settings, Matrix : Custom
Codec ID : XVID
Codec ID/Hint : XviD
Duration : 1h 42mn
Bit rate : 1 640 Kbps
Width : 720 pixels
Height : 304 pixels
Display aspect ratio : 2.35:1
Frame rate : 25.000 fps
Color space : YUV
Chroma subsampling : 4:2:0
Bit depth : 8 bits
Scan type : Progressive
Compression mode : Lossy
Bits/(Pixel*Frame) : 0.300
Stream size : 1.17 GiB (81%)
Writing library : XviD 1.2.1 (UTC 2008-12-04)
Audio
ID : 1
Format : AC-3
Format/Info : Audio Coding 3
Mode extension : CM (complete main)
Format settings, Endianness : Big
Codec ID : 2000
Duration : 1h 42mn
Bit rate mode : Constant
Bit rate : 384 Kbps
Channel count : 6 channels
Channel positions : Front: L C R, Side: L R, LFE
Sampling rate : 48.0 KHz
Bit depth : 16 bits
Compression mode : Lossy
Stream size : 282 MiB (19%)
Alignment : Split accross interleaves
Interleave, duration : 40 ms (1.00 video frame)
Interleave, preload duration : 500 ms

Скриншоты





Создавать темы 15-Авг-2015 22:56

[Профиль]  [ЛС] 
Показать сообщения:    
Ответить на тему

Текущее время: 18-Окт 14:01

Часовой пояс: UTC + 5



Вы не можете начинать темы
Вы не можете отвечать на сообщения
Вы не можете редактировать свои сообщения
Вы не можете удалять свои сообщения
Вы не можете голосовать в опросах
Вы не можете прикреплять файлы к сообщениям
Вы не можете скачивать файлы