Красный сад / Red Garden (Мацуо Ко) [TV] [Без хардсаба] [01-22+1 из 22+1] [RUS(int),JAP+SUB] [2006г., приключения, мистика, ужасы, драма, DVDRip]

Ответить на тему
 

SoluSoull ®

Стаж: 2 года 7 месяцев

Сообщений: 379

Симпатии: 452

Red Garden
Красный сад-Производство: Япония
Год выпуска: 2006
Жанр: приключения, мистика, ужасы, драма
Тип: ТВ (22 эп.), 25 мин + OVA (1 эп.) 45 мин-Перевод:
Озвучка от Noir & Cuba77 (AniDub)
Субтитры от Dreamers Team-Режиссёр: Мацуо Ко
Автор оригинала: Ямасита Томохиро
Студия: GONZO-Описание: В школе они бы никогда не сошлись вместе - если б не обстоятельства. Уж слишком они разные, эти девушки.
Кейт, скромная и хрупкая настолько, что как будто прозрачная, ответственная и добрая, член элитной школьной зондеркоманды "Грейс", дочь весьма известной в деловых кругах семьи... Роза, типичная будущая образцовая домохозяйка, тихая ,незаметная, слабая и пугливая, не способная ударить даже тогда, когда от этого будет зависеть её жизнь... Рэйчел, гордая и немного развязная девица, прожигающая жизнь на гламурных тусовках... И Клэр, сама выбравшая себе путь наверх из самых низов, практичная, грубая и нелюдимая снаружи, но столь же страдающая и ищущая счастья внутри...
В тот день, когда начинается эта история, они узнают горестную новость: при странных обстоятельствах умерла их подруга и соученица Лиз. Трагическое известие, как и полагается, смущает и ужасает девушек... но что-то еще беспокоит всех четверых, что-то неуловимое, странно-забытое. Безвременная смерть Лиз словно набросила тень на их жизни, связала общей безрадостной тайной...-Качество: DVDRip | Формат: mkv
Тип видео: без хардсаба
Видео: H264 864x480 23.976 fps 1 497 kbps 8 bit
Аудио RUS: MP3 48000Hz stereo 192 kbps
Аудио JAP: AC3 48000Hz stereo 192 kbps-

Скриншоты


MI

General
Unique ID : 235330166556880482687603760009306934792 (0xB10AF10374366CE1AB5810CDC2EF8E08)
Complete name : ***\[AniDub]_Red_Garden_TV_[01_of_22]_[RUS_JAP]_[Cuba77_&_Noir].mkv
Format : Matroska
Format version : Version 1
File size : 328 MiB
Duration : 23mn 14s
Overall bit rate : 1 971 Kbps
Encoded date : UTC 2009-05-21 17:59:43
Writing application : mkvmerge v2.0.2 ('You're My Flame') built on Feb 21 2007 23:40:55
Writing library : libebml v0.7.7 + libmatroska v0.8.1
Video
ID : 1
Format : AVC
Format/Info : Advanced Video Codec
Format profile : [email protected]
Format settings, CABAC : Yes
Format settings, ReFrames : 13 frames
Codec ID : V_MPEG4/ISO/AVC
Duration : 23mn 14s
Bit rate : 1 548 Kbps
Width : 864 pixels
Height : 480 pixels
Display aspect ratio : 16:9
Frame rate mode : Constant
Frame rate : 23.976 fps
Color space : YUV
Chroma subsampling : 4:2:0
Bit depth : 8 bits
Scan type : Progressive
Bits/(Pixel*Frame) : 0.156
Stream size : 257 MiB (79%)
Writing library : x264 core 56 svn-680
Encoding settings : cabac=1 / ref=10 / deblock=1:0:0 / analyse=0x1:0x131 / me=hex / subme=5 / brdo=0 / mixed_ref=1 / me_range=16 / chroma_me=1 / trellis=2 / 8x8dct=0 / cqm=0 / deadzone=21,11 / chroma_qp_offset=0 / threads=3 / nr=0 / decimate=0 / mbaff=0 / bframes=3 / b_pyramid=1 / b_adapt=1 / b_bias=3 / direct=3 / wpredb=1 / bime=1 / keyint=250 / keyint_min=25 / scenecut=40(pre) / rc=cqp / qp=21 / ip_ratio=1.40 / pb_ratio=1.30
Language : English
Default : Yes
Forced : No
Audio #1
ID : 3
Format : MPEG Audio
Format version : Version 1
Format profile : Layer 3
Mode : Joint stereo
Codec ID : A_MPEG/L3
Codec ID/Hint : MP3
Duration : 23mn 14s
Bit rate mode : Constant
Bit rate : 192 Kbps
Channel(s) : 2 channels
Sampling rate : 48.0 KHz
Compression mode : Lossy
Stream size : 31.9 MiB (10%)
Default : Yes
Forced : No
Audio #2
ID : 4
Format : AC-3
Format/Info : Audio Coding 3
Mode extension : CM (complete main)
Format settings, Endianness : Big
Codec ID : A_AC3
Duration : 23mn 14s
Bit rate mode : Constant
Bit rate : 192 Kbps
Channel(s) : 2 channels
Channel positions : Front: L R
Sampling rate : 48.0 KHz
Compression mode : Lossy
Stream size : 31.9 MiB (10%)
Default : No
Forced : No
Text
ID : 2
Format : ASS
Codec ID : S_TEXT/ASS
Codec ID/Info : Advanced Sub Station Alpha
Compression mode : Lossless
Language : Russian
Default : Yes
Forced : No

Создавать темы 16-Авг-2015 11:04

[Профиль]  [ЛС] 
Показать сообщения:    
Ответить на тему

Текущее время: 22-Окт 00:27

Часовой пояс: UTC + 5



Вы не можете начинать темы
Вы не можете отвечать на сообщения
Вы не можете редактировать свои сообщения
Вы не можете удалять свои сообщения
Вы не можете голосовать в опросах
Вы не можете прикреплять файлы к сообщениям
Вы не можете скачивать файлы