[MOVIE] Геном опасности / Genom Hazard (Ким Сон Су) [2013, Корея Южная, Япония, Триллер, драма, HDRip]

Ответить на тему
 

Боксер ®

Стаж: 2 года 1 месяц

Сообщений: 54

Симпатии: 34

Геном опасности / Genom Hazard Страна: Корея Южная, Япония
Жанр: Триллер, драма
Год выпуска: 2013
Продолжительность: 01:59:50
Перевод: Любительский (двухголосый закадровый)
Cубтитры: нет
Режиссер: Ким Сон Су
В ролях: Масато Ибу, Ким Хё Чжин, Йоко Маки, Хидэтоси Нисидзима
Описание: Зайдя домой, Исигами находит в комнате с зажженными свечами труп своей жены. А следом в квартиру вламывается двое неизвестных, но Исигами удается сбежать. Находясь в бегах, он встречает корейского репортера Кан Джи Вон, проявившую интерес к его тяжелому положению и предложившую свою помощь. Мужчина крайне удивлен тем, что свободно говорит по-корейски, ведь он уверен, что не знает языка, да и воспоминания какие-то смутные о прошлой жизни. Кто же он на самом деле?

Тех.данные

Качество видео: HDRip
Формат видео: MP4
Видео: 1131 Кбит/с, 720х304 (2.35:1), в 23,976 кадр/сек, AVC
Аудио: 128 Кбит/с, 48,0 КГц, 2 канала, AAC

MediaInfo

Формат : MPEG-4
Профиль формата : Base Media
Идентификатор кодека : isom
Размер файла : 1,06 Гбайт
Продолжительность : 1 ч. 59 м.
Общий поток : 1263 Кбит/сек
Программа кодирования : Lavf55.12.100
Видео
Идентификатор : 2
Формат : AVC
Формат/Информация : Advanced Video Codec
Профиль формата : [email protected]
Параметр CABAC формата : Да
Параметр ReFrames формата : 2 кадра
Параметр GOP формата : M=1, N=12
Идентификатор кодека : avc1
Идентификатор кодека/Информация : Advanced Video Coding
Продолжительность : 1 ч. 59 м.
Битрейт : 1131 Кбит/сек
Ширина : 720 пикселей
Высота : 304 пикселя
Соотношение сторон : 2,35:1
Режим частоты кадров : Постоянный
Частота кадров : 23,976 кадра/сек
Цветовое пространство : YUV
Субдискретизация насыщенности : 4:2:0
Битовая глубина : 8 бит
Тип развёртки : Прогрессивная
Бит/(Пиксели*Кадры) : 0.215
Размер потока : 969 Мбайт (90%)
Аудио
Идентификатор : 1
Формат : AAC
Формат/Информация : Advanced Audio Codec
Профиль формата : LC
Идентификатор кодека : 40
Продолжительность : 1 ч. 59 м.
Duration_LastFrame : -9 мс.
Вид битрейта : Постоянный
Битрейт : 128 Кбит/сек
Каналы : 2 канала
Расположение каналов : Front: L R
Частота : 48,0 КГц
Метод сжатия : С потерями
Размер потока : 110 Мбайт (10%)

Скриншоты






Последний раз редактировалось: Боксер (2015-08-30 07:07), всего редактировалось 1 раз

Создавать темы 16-Авг-2015 13:48

[Профиль]  [ЛС] 
Показать сообщения:    
Ответить на тему

Текущее время: 22-Сен 04:15

Часовой пояс: UTC + 5



Вы не можете начинать темы
Вы не можете отвечать на сообщения
Вы не можете редактировать свои сообщения
Вы не можете удалять свои сообщения
Вы не можете голосовать в опросах
Вы не можете прикреплять файлы к сообщениям
Вы не можете скачивать файлы