[MOVIE]Человек с планом / The Plan Man (Si-Heup Seong) [2014, Корея Южная, Комедия, DVDRip] (DVO)

Ответить на тему
 

Боксер ®

Стаж: 2 года 4 месяца

Сообщений: 54

Симпатии: 34

Человек с планом / The Plan Man
Страна: Корея Южная
Жанр: Комедия
Год выпуска: 2014
Продолжительность: 2ч:01м:08с
Перевод: Любительский (двухголосый закадровый)
Cубтитры: нет
Режиссер: Si-Heup Seong
В ролях: Чон Чжэ Ён, Хан Чжи Мин, Чха Йе Рён, Чои Вон Ён, Чан Гван, Чжи-ен Ким, Пак Джин Джу, Пак Киль Су, Ю Сын Мок...
Описание: Хан Чон Сок (Чон Чжэ Ён) из тех жутких педантов, у которых каждое мгновение его жизни четко распланировано и он не терпит никаких отклонений от своего четкого графика. Однажды, он встречает и без памяти влюбляется в красавицу Ли Чжи Вон (Чха Е Рюн), но, к его глубокому разочарованию, девушка отвергает его, потому что не представляет рядом с собой такого скучного человека. Он так убит горем, что позволяет близкой подружке своей возлюбленной помочь ему превратиться из педанта в обычного беззаботного парня. Ведь Ю Со Чжон (Хан Чжи Мин) - его полная противоположность во всех отношениях. Эта бесшабашная солистка рок-группы вообще не имеет никакого понятия о планировании и наслаждается жизнью по полной. Они вместе начинают тяжелую борьбу по его перевоплощению, и, тут, в голову Со Чжон приходит сумасшедшая идея, что в ответ Чон Сок может помочь ей стать серьезней. Что из этого получится, вы узнаете, посмотрев эту комедию...

Тех. Данные

Качество видео: DVDRip
Формат видео: MP4
Видео: 1129 Кбит/с, 720х304 (2.35:1), в 23,976 кадр/сек, AVC
Аудио: 128 Кбит/с, 48,0 КГц, 2 канала, AAC

MediaInfo

Формат : MPEG-4
Профиль формата : Base Media
Идентификатор кодека : isom
Размер файла : 1,12 Гбайт
Продолжительность : 2 ч. 1 м.
Общий поток : 1325 Кбит/сек
Программа кодирования : Lavf55.12.100
Видео
Идентификатор : 2
Формат : AVC
Формат/Информация : Advanced Video Codec
Профиль формата : [email protected]
Параметр CABAC формата : Да
Параметр ReFrames формата : 2 кадра
Параметр GOP формата : M=1, N=12
Идентификатор кодека : avc1
Идентификатор кодека/Информация : Advanced Video Coding
Продолжительность : 2 ч. 1 м.
Битрейт : 1129 Кбит/сек
Ширина : 720 пикселей
Высота : 304 пикселя
Соотношение сторон : 2,35:1
Режим частоты кадров : Постоянный
Частота кадров : 23,976 кадра/сек
Цветовое пространство : YUV
Субдискретизация насыщенности : 4:2:0
Битовая глубина : 8 бит
Тип развёртки : Прогрессивная
Бит/(Пиксели*Кадры) : 0.215
Размер потока : 978 Мбайт (85%)
Аудио
Идентификатор : 1
Формат : AAC
Формат/Информация : Advanced Audio Codec
Профиль формата : LC
Идентификатор кодека : 40
Продолжительность : 2 ч. 1 м.
Duration_LastFrame : -9 мс.
Вид битрейта : Постоянный
Битрейт : 192 Кбит/сек
Каналы : 2 канала
Расположение каналов : Front: L R
Частота : 48,0 КГц
Метод сжатия : С потерями
Размер потока : 166 Мбайт (14%)

Скриншоты





Последний раз редактировалось: Боксер (2015-08-30 07:10), всего редактировалось 1 раз

Создавать темы 16-Авг-2015 15:17

[Профиль]  [ЛС] 
Показать сообщения:    
Ответить на тему

Текущее время: 11-Дек 12:50

Часовой пояс: UTC + 5



Вы не можете начинать темы
Вы не можете отвечать на сообщения
Вы не можете редактировать свои сообщения
Вы не можете удалять свои сообщения
Вы не можете голосовать в опросах
Вы не можете прикреплять файлы к сообщениям
Вы не можете скачивать файлы