[MOVIE]Большой бум / Ssonda (Пак Чжон У) [2007, Корея Южная, боевик, криминал, комедия, DVDRip] (VO)

Ответить на тему
 

Боксер ®

Стаж: 2 года 2 месяца

Сообщений: 54

Симпатии: 34

Большой бум / Ssonda
Страна: Корея Южная
Жанр: боевик, криминал, комедия
Год выпуска: 2007
Продолжительность: 01:56:29
Перевод: Одноголосый закадровый
Cубтитры: нет
Режиссер: Пак Чжон У
В ролях: Чо Хи Бон, Чжо Ми Рён, Seok-tae Ju, Ким Су Хён, Ли Чхон Хи, Им Хён Сик, Хо Мин, М.С. Монг, О Даль Су, Пак Чи Ён
Описание: Бывают дни, когда все идет не так. Пак Ман-Су, примерный семьянин, в один из таких дней лишился всего, что он любил, к чему он привык — жены и работы. В этот же вечер его забирают в полицейский участок за нарушение общественного порядка. Там он знакомится с Ян Чхоль-Гоном, который имеет совершенно другие принципы — никаких правил, живи, как нравится. Вместе они сбегают из участка, прихватив с собой оружие.
Качество видео: DVDRip
Формат видео: MP4
Видео: 320 Кбит/с (340), 640х272 (2.35:1), в 23,976 кадр/сек, AVC
Аудио: 128 Кбит/с, 44,1 КГц, 2 канала, AAC

MediaInfo

Формат : MPEG-4
Профиль формата : Base Media
Идентификатор кодека : isom
Размер файла : 377 Мбайт
Продолжительность : 1 ч. 56 м.
Режим общего битрейта : Переменный
Общий поток : 453 Кбит/сек
Дата кодирования : UTC 1970-01-01 00:00:00
Дата пометки : UTC 1970-01-01 00:00:00
Программа кодирования : Lavf52.40.0
Видео
Идентификатор : 1
Формат : AVC
Формат/Информация : Advanced Video Codec
Профиль формата : Baseline@L3.0
Параметр CABAC формата : Нет
Параметр ReFrames формата : 1 кадр
Идентификатор кодека : avc1
Идентификатор кодека/Информация : Advanced Video Coding
Продолжительность : 1 ч. 56 м.
Битрейт : 320 Кбит/сек
Номинальный битрейт : 340 Кбит/сек
Ширина : 640 пикселей
Высота : 272 пикселя
Соотношение сторон : 2,35:1
Режим частоты кадров : Переменный
Частота кадров : 23,976 кадра/сек
Частота кадров в оригинале : 25,000 кадров/сек
Минимальная частота кадров : 8,333 кадров/сек
Максимальная частота кадров : 25,000 кадров/сек
Цветовое пространство : YUV
Субдискретизация насыщенности : 4:2:0
Битовая глубина : 8 бит
Тип развёртки : Прогрессивная
Бит/(Пиксели*Кадры) : 0.077
Размер потока : 267 Мбайт (71%)
Библиотека кодирования : x264 core 79
Настройки программы : cabac=0 / ref=1 / deblock=1:0:0 / analyse=0x1:0x131 / me=tesa / subme=9 / psy=1 / psy_rd=1.0:0.0 / mixed_ref=0 / me_range=24 / chroma_me=1 / trellis=0 / 8x8dct=0 / cqm=0 / deadzone=21,11 / chroma_qp_offset=-2 / threads=24 / nr=0 / decimate=1 / mbaff=0 / constrained_intra=0 / bframes=0 / wpredp=0 / keyint=250 / keyint_min=25 / scenecut=40 / rc_lookahead=40 / rc=cbr / mbtree=1 / bitrate=340 / ratetol=11.8 / qcomp=0.60 / qpmin=10 / qpmax=51 / qpstep=4 / vbv_maxrate=10000 / vbv_bufsize=10000 / ip_ratio=1.41 / aq=1:1.00
Дата кодирования : UTC 1970-01-01 00:00:00
Дата пометки : UTC 1970-01-01 00:00:00
Аудио
Идентификатор : 2
Формат : AAC
Формат/Информация : Advanced Audio Codec
Профиль формата : LC
Идентификатор кодека : 40
Продолжительность : 1 ч. 56 м.
Вид битрейта : Переменный
Битрейт : 128 Кбит/сек
Каналы : 2 канала
Расположение каналов : Front: L R
Частота : 44,1 КГц
Метод сжатия : С потерями
Размер потока : 107 Мбайт (28%)
Дата кодирования : UTC 1970-01-01 00:00:00
Дата пометки : UTC 1970-01-01 00:00:00

Скриншоты








Последний раз редактировалось: Боксер (2015-08-18 17:50), всего редактировалось 1 раз

Создавать темы 16-Авг-2015 16:47

[Профиль]  [ЛС] 

Beka999

Стаж: 3 года 11 месяцев

Сообщений: 15

Симпатии: 13

Продолжительность: 1ч:58м чч:мм:сс

Создавать темы 18-Авг-2015 15:25

[Профиль]  [ЛС] 

Топик был перенесен из форума Азиатские фильмы в форум Видео для мобильных устройств
victor0778

Создавать темы 29-Авг-2015 20:44

 
Показать сообщения:    
Ответить на тему

Текущее время: 19-Окт 17:55

Часовой пояс: UTC + 5



Вы не можете начинать темы
Вы не можете отвечать на сообщения
Вы не можете редактировать свои сообщения
Вы не можете удалять свои сообщения
Вы не можете голосовать в опросах
Вы не можете прикреплять файлы к сообщениям
Вы не можете скачивать файлы