[MOVIE] Я – король / Na-neun wang-i-ro-so-i-da (Kyu-sung Jang) [2012, Корея Южная, комедия, история, DVDRip] (DVO)

Ответить на тему
 

Боксер ®

Стаж: 2 года 1 месяц

Сообщений: 54

Симпатии: 34

Я – король / Na-neun wang-i-ro-so-i-da
Страна: Корея Южная
Жанр: комедия, история
Год выпуска: 2012
Продолжительность: 02:01:07
Перевод: Любительский (двухголосый закадровый)
Cубтитры: нет
Режиссер: Kyu-sung Jang
В ролях: Чон-сок Ким, Кенг Янг Мо, Кван-ик Сон
Описание: Фильм рассказывает историю короля Сечжона Великого, величайшего правителя династии Чосон, который разработал корейский алфавит. В попытке спастись от давления отца — короля Тэчжо, принц сбегает из дворца. Когда он перелезает через дворцовую стену, то, не удержавшись, неожиданно падает на раба Док-Чхоля, пытавшегося проникнуть во дворец и спасти дочь своего хозяина Су-Ён, в которую тайно влюблен. Удивительно, но раб и принц похожи друг на друга как две капли воды. Пока Док-Чхоль находится без сознания от удара свалившегося ему на голову принца, тот сбегает. Когда раб очнулся, то вышло, что они с принцем меняются местами друг с другом…
Качество видео: DVDRip
Формат видео: MP4
Видео: 340 Кбит/с (340), 640х270 (2.40:1), в 24,000 кадр/сек, AVC
Аудио: 128 Кбит/с, 44,1 КГц, 2 канала, AAC

MediaInfo

Формат : MPEG-4
Профиль формата : Base Media
Идентификатор кодека : isom
Размер файла : 395 Мбайт
Продолжительность : 2 ч. 1 м.
Режим общего битрейта : Переменный
Общий поток : 456 Кбит/сек
Дата кодирования : UTC 2013-03-29 20:13:16
Дата пометки : UTC 2013-03-29 20:13:16
Видео
Идентификатор : 1
Формат : AVC
Формат/Информация : Advanced Video Codec
Профиль формата : [email protected]
Параметр CABAC формата : Нет
Параметр ReFrames формата : 1 кадр
Идентификатор кодека : avc1
Идентификатор кодека/Информация : Advanced Video Coding
Продолжительность : 2 ч. 1 м.
Битрейт : 340 Кбит/сек
Максимальный битрейт : 1853 Кбит/сек
Ширина : 640 пикселей
Высота : 270 пикселей
Соотношение сторон : 2,40:1
Режим частоты кадров : Переменный
Частота кадров : 24,000 кадра/сек
Частота кадров в оригинале : 25,000 кадров/сек
Минимальная частота кадров : 8,333 кадров/сек
Максимальная частота кадров : 25,000 кадров/сек
Цветовое пространство : YUV
Субдискретизация насыщенности : 4:2:0
Битовая глубина : 8 бит
Тип развёртки : Прогрессивная
Бит/(Пиксели*Кадры) : 0.082
Размер потока : 281 Мбайт (71%)
Библиотека кодирования : x264 core 79
Настройки программы : cabac=0 / ref=1 / deblock=1:0:0 / analyse=0x1:0x131 / me=tesa / subme=9 / psy=1 / psy_rd=1.0:0.0 / mixed_ref=0 / me_range=24 / chroma_me=1 / trellis=0 / 8x8dct=0 / cqm=0 / deadzone=21,11 / chroma_qp_offset=-2 / threads=24 / nr=0 / decimate=1 / mbaff=0 / constrained_intra=0 / bframes=0 / wpredp=0 / keyint=250 / keyint_min=25 / scenecut=40 / rc_lookahead=40 / rc=cbr / mbtree=1 / bitrate=340 / ratetol=11.8 / qcomp=0.60 / qpmin=10 / qpmax=51 / qpstep=4 / vbv_maxrate=10000 / vbv_bufsize=10000 / ip_ratio=1.41 / aq=1:1.00
Дата кодирования : UTC 1970-01-01 00:00:00
Дата пометки : UTC 2013-03-29 20:13:22
Аудио
Идентификатор : 2
Формат : AAC
Формат/Информация : Advanced Audio Codec
Профиль формата : LC
Идентификатор кодека : 40
Продолжительность : 2 ч. 1 м.
Вид битрейта : Переменный
Битрейт : 128 Кбит/сек
Максимальный битрейт : 162 Кбит/сек
Каналы : 2 канала
Расположение каналов : Front: L R
Частота : 44,1 КГц
Метод сжатия : С потерями
Размер потока : 111 Мбайт (28%)
Дата кодирования : UTC 2013-03-29 20:13:21
Дата пометки : UTC 2013-03-29 20:13:22

Скриншоты





Создавать темы 16-Авг-2015 17:10

[Профиль]  [ЛС] 

Топик был перенесен из форума Азиатские фильмы в форум Видео для мобильных устройств
victor0778

Создавать темы 29-Авг-2015 20:44

 
Показать сообщения:    
Ответить на тему

Текущее время: 20-Сен 10:32

Часовой пояс: UTC + 5



Вы не можете начинать темы
Вы не можете отвечать на сообщения
Вы не можете редактировать свои сообщения
Вы не можете удалять свои сообщения
Вы не можете голосовать в опросах
Вы не можете прикреплять файлы к сообщениям
Вы не можете скачивать файлы