[MOVIE] Полицейский на подиуме / Cha hyung-sa (Терра Шин) [2012, Корея Южная, комедия, криминал, DVDRip] (DVO)

Ответить на тему
 

Боксер ®

Стаж: 2 года 4 месяца

Сообщений: 54

Симпатии: 34

Полицейский на подиуме / Cha hyung-sa
Страна: Корея Южная
Жанр: комедия, криминал
Год выпуска: 2012
Продолжительность: 01:50:32
Перевод: Любительский (двухголосый закадровый)
Cубтитры: нет
Режиссер: Терра Шин
В ролях: Кан Чжи Хван, Sung Yu Ri, Ли Су Хек, Kim Young‑kwang, Син Чжон Гын
Описание: Чтобы вывести преступников на чистую воду крутой полицейский Ча Чол вынужден внедриться в мир шоу-бизнеса и стать профессиональной фотомоделью
Качество видео: DVDRip
Формат видео: MP4
Видео: 374 Кбит/с (340), 640х270 (2.35:1), в 25,000 кадр/сек, AVC
Аудио: 128 Кбит/с, 44,1 КГц, 2 канала, AAC

MediaInfo

Формат : MPEG-4
Профиль формата : Base Media
Идентификатор кодека : isom
Размер файла : 401 Мбайт
Продолжительность : 1 ч. 50 м.
Общий поток : 507 Кбит/сек
Программа кодирования : Lavf55.48.100
Видео
Идентификатор : 1
Формат : AVC
Формат/Информация : Advanced Video Codec
Профиль формата : [email protected]
Параметр CABAC формата : Нет
Параметр ReFrames формата : 3 кадра
Идентификатор кодека : avc1
Идентификатор кодека/Информация : Advanced Video Coding
Продолжительность : 1 ч. 50 м.
Битрейт : 374 Кбит/сек
Ширина : 640 пикселей
Высота : 270 пикселей
Соотношение сторон : 2,35:1
Режим частоты кадров : Постоянный
Частота кадров : 25,000 кадров/сек
Цветовое пространство : YUV
Субдискретизация насыщенности : 4:2:0
Битовая глубина : 8 бит
Тип развёртки : Прогрессивная
Бит/(Пиксели*Кадры) : 0.087
Размер потока : 296 Мбайт (74%)
Библиотека кодирования : x264 core 142
Настройки программы : cabac=0 / ref=3 / deblock=1:0:0 / analyse=0x1:0x111 / me=hex / subme=7 / psy=1 / psy_rd=1.00:0.00 / mixed_ref=1 / me_range=16 / chroma_me=1 / trellis=1 / 8x8dct=0 / cqm=0 / deadzone=21,11 / fast_pskip=1 / chroma_qp_offset=-2 / threads=8 / lookahead_threads=1 / sliced_threads=0 / nr=0 / decimate=1 / interlaced=0 / bluray_compat=0 / constrained_intra=0 / bframes=0 / weightp=0 / keyint=250 / keyint_min=25 / scenecut=40 / intra_refresh=0 / rc_lookahead=40 / rc=abr / mbtree=1 / bitrate=374 / ratetol=1.0 / qcomp=0.60 / qpmin=0 / qpmax=69 / qpstep=4 / ip_ratio=1.40 / aq=1:1.00
Аудио
Идентификатор : 2
Формат : AAC
Формат/Информация : Advanced Audio Codec
Профиль формата : LC
Идентификатор кодека : 40
Продолжительность : 1 ч. 50 м.
Duration_LastFrame : -22 мс.
Вид битрейта : Постоянный
Битрейт : 128 Кбит/сек
Каналы : 2 канала
Расположение каналов : Front: L R
Частота : 44,1 КГц
Метод сжатия : С потерями
Размер потока : 101 Мбайт (25%)

Скриншоты







Последний раз редактировалось: Боксер (2015-08-30 07:14), всего редактировалось 4 раз(а)

Создавать темы 16-Авг-2015 17:45

[Профиль]  [ЛС] 

Beka999

Стаж: 4 года

Сообщений: 15

Симпатии: 13

Продолжительность: 1ч:50м чч:мм:сс
Постер 500х600

Создавать темы 18-Авг-2015 15:26

[Профиль]  [ЛС] 

Топик был перенесен из форума Азиатские фильмы в форум Видео для мобильных устройств
victor0778

Создавать темы 29-Авг-2015 20:43

 
Показать сообщения:    
Ответить на тему

Текущее время: 12-Дек 11:12

Часовой пояс: UTC + 5



Вы не можете начинать темы
Вы не можете отвечать на сообщения
Вы не можете редактировать свои сообщения
Вы не можете удалять свои сообщения
Вы не можете голосовать в опросах
Вы не можете прикреплять файлы к сообщениям
Вы не можете скачивать файлы