[MOVIE] Отель Маган: Последнее дело гангстеров / Magang Hotel (Сеок-хан Ким) [2006, Корея Южная, комедия, криминал, DVDRip] (DVO)

Ответить на тему
 

Боксер ®

Стаж: 2 года

Сообщений: 54

Симпатии: 34

Отель Маган: Последнее дело гангстеров / Magang Hotel
Страна: Корея Южная
Жанр: комедия, криминал
Год выпуска: 2006
Продолжительность: 01:38:12
Перевод: Любительский (двухголосый закадровый)
Cубтитры: нет
Режиссер: Сеок-хан Ким
В ролях: Ким Со Ын, Пак Чжин Хи,
Описание:
Криминальный мир Кореи в смятени, ведь многие банды решили предпринять «сокращение» лишних работников, чтобы сократить расходы! И теперь один из гангстеров рискует потерять свою «работу и должен доказать свою ценность для банды…
Качество видео: DVDRip
Формат видео: MP4
Видео: 417 Кбит/с (440), 640х356 (16:9), в 23,976 кадр/сек, AVC
Аудио: 128 Кбит/с, 44,1 КГц, 2 канала, AAC

MediaInfo

Формат : MPEG-4
Профиль формата : Base Media
Идентификатор кодека : isom
Размер файла : 386 Мбайт
Продолжительность : 1 ч. 38 м.
Режим общего битрейта : Переменный
Общий поток : 549 Кбит/сек
Дата кодирования : UTC 1970-01-01 00:00:00
Дата пометки : UTC 1970-01-01 00:00:00
Программа кодирования : Lavf52.40.0
Видео
Идентификатор : 1
Формат : AVC
Формат/Информация : Advanced Video Codec
Профиль формата : [email protected]
Параметр CABAC формата : Нет
Параметр ReFrames формата : 1 кадр
Идентификатор кодека : avc1
Идентификатор кодека/Информация : Advanced Video Coding
Продолжительность : 1 ч. 38 м.
Битрейт : 417 Кбит/сек
Номинальный битрейт : 440 Кбит/сек
Ширина : 640 пикселей
Высота : 356 пикселей
Соотношение сторон : 16:9
Режим частоты кадров : Переменный
Частота кадров : 23,976 кадра/сек
Частота кадров в оригинале : 25,000 кадров/сек
Минимальная частота кадров : 12,500 кадров/сек
Максимальная частота кадров : 25,000 кадров/сек
Цветовое пространство : YUV
Субдискретизация насыщенности : 4:2:0
Битовая глубина : 8 бит
Тип развёртки : Прогрессивная
Бит/(Пиксели*Кадры) : 0.076
Размер потока : 293 Мбайт (76%)
Библиотека кодирования : x264 core 79
Настройки программы : cabac=0 / ref=1 / deblock=1:0:0 / analyse=0x1:0x131 / me=tesa / subme=9 / psy=1 / psy_rd=1.0:0.0 / mixed_ref=0 / me_range=24 / chroma_me=1 / trellis=0 / 8x8dct=0 / cqm=0 / deadzone=21,11 / chroma_qp_offset=-2 / threads=24 / nr=0 / decimate=1 / mbaff=0 / constrained_intra=0 / bframes=0 / wpredp=0 / keyint=250 / keyint_min=25 / scenecut=40 / rc_lookahead=40 / rc=cbr / mbtree=1 / bitrate=440 / ratetol=9.1 / qcomp=0.60 / qpmin=10 / qpmax=51 / qpstep=4 / vbv_maxrate=10000 / vbv_bufsize=10000 / ip_ratio=1.41 / aq=1:1.00
Дата кодирования : UTC 1970-01-01 00:00:00
Дата пометки : UTC 1970-01-01 00:00:00
Аудио
Идентификатор : 2
Формат : AAC
Формат/Информация : Advanced Audio Codec
Профиль формата : LC
Идентификатор кодека : 40
Продолжительность : 1 ч. 38 м.
Вид битрейта : Переменный
Битрейт : 128 Кбит/сек
Каналы : 2 канала
Расположение каналов : Front: L R
Частота : 44,1 КГц
Метод сжатия : С потерями
Размер потока : 89,9 Мбайт (23%)
Дата кодирования : UTC 1970-01-01 00:00:00
Дата пометки : UTC 1970-01-01 00:00:00

Скриншоты





Последний раз редактировалось: Боксер (2015-08-18 18:08), всего редактировалось 1 раз

Создавать темы 16-Авг-2015 18:18

[Профиль]  [ЛС] 

Beka999

Стаж: 3 года 9 месяцев

Сообщений: 15

Симпатии: 13

Продолжительность: 1ч:38м чч:мм:сс

Создавать темы 18-Авг-2015 15:26

[Профиль]  [ЛС] 

Топик был перенесен из форума Азиатские фильмы в форум Видео для мобильных устройств
victor0778

Создавать темы 29-Авг-2015 20:43

 
Показать сообщения:    
Ответить на тему

Текущее время: 17-Авг 14:55

Часовой пояс: UTC + 5



Вы не можете начинать темы
Вы не можете отвечать на сообщения
Вы не можете редактировать свои сообщения
Вы не можете удалять свои сообщения
Вы не можете голосовать в опросах
Вы не можете прикреплять файлы к сообщениям
Вы не можете скачивать файлы