[MOVIE] Лжец / Laieo (Кён-хён Ким) [2004, Корея Южная, комедия, DVDRip] (DVO)

Ответить на тему
 

Боксер ®

Стаж: 2 года 3 месяца

Сообщений: 54

Симпатии: 34

Лжец / Laieo
Страна: Корея Южная
Жанр: комедия
Год выпуска: 2004
Продолжительность: 01:56:06
Перевод: Любительский (двухголосый закадровый)
Cубтитры: нет
Режиссер: Кён-хён Ким
В ролях: Чу Чжин Мо, Кон Хён Чжин, Сонг Сон Ми, Со Ён Хи, Сон Хён Чжу, Им Хён Сик, Ки Джу Бон
Описание: У таксиста Чжона Манчхоля две жены, которые понятия не имеют о существовании друг друга. Он так расчитал своё и их рабочее время, что может жить полноценной семейной жизнью с обеими женщинами. По воле случая он ловит сбежавшего преступника, что привлекает к его персоне внимание репортёров и полиции.
Поначалу солгал, и теперь не может выкрутиться из цепочки лжи, которую он с другом изощрённо выдумывали. Заморочили голову остальным, и запутались сами; теперь детектив считает, что эти два приятеля сообщники пойманного преступника, и во что бы то ни стало решил вывести их на чистую воду. Но Манчхоль скорее признается, что он с другом гомосексуалисты, чем выдаст существование двух жён.
Качество видео: DVDRip
Формат видео: MP4
Видео: 320 Кбит/с (340), 544х304 (16:9), в 25,000 кадр/сек, AVC
Аудио: 128 Кбит/с, 44,1 КГц, 2 канала, AAC

MediaInfo

Формат : MPEG-4
Профиль формата : Base Media
Идентификатор кодека : isom
Размер файла : 376 Мбайт
Продолжительность : 1 ч. 56 м.
Режим общего битрейта : Переменный
Общий поток : 452 Кбит/сек
Программа кодирования : Lavf54.59.106
Видео
Идентификатор : 1
Формат : AVC
Формат/Информация : Advanced Video Codec
Профиль формата : [email protected]
Параметр CABAC формата : Нет
Параметр ReFrames формата : 3 кадра
Идентификатор кодека : avc1
Идентификатор кодека/Информация : Advanced Video Coding
Продолжительность : 1 ч. 56 м.
Битрейт : 320 Кбит/сек
Ширина : 544 пикселя
Высота : 304 пикселя
Соотношение сторон : 16:9
Режим частоты кадров : Постоянный
Частота кадров : 25,000 кадров/сек
Цветовое пространство : YUV
Субдискретизация насыщенности : 4:2:0
Битовая глубина : 8 бит
Тип развёртки : Прогрессивная
Бит/(Пиксели*Кадры) : 0.077
Размер потока : 265 Мбайт (71%)
Библиотека кодирования : x264 core 129
Настройки программы : cabac=0 / ref=3 / deblock=1:0:0 / analyse=0x1:0x111 / me=hex / subme=7 / psy=1 / psy_rd=1.00:0.00 / mixed_ref=1 / me_range=16 / chroma_me=1 / trellis=1 / 8x8dct=0 / cqm=0 / deadzone=21,11 / fast_pskip=1 / chroma_qp_offset=-2 / threads=24 / lookahead_threads=4 / sliced_threads=0 / nr=0 / decimate=1 / interlaced=0 / bluray_compat=0 / constrained_intra=0 / bframes=0 / weightp=0 / keyint=250 / keyint_min=25 / scenecut=40 / intra_refresh=0 / rc_lookahead=40 / rc=abr / mbtree=1 / bitrate=320 / ratetol=1.0 / qcomp=0.60 / qpmin=0 / qpmax=69 / qpstep=4 / vbv_maxrate=10000 / vbv_bufsize=10000 / nal_hrd=none / ip_ratio=1.40 / aq=1:1.00
Аудио
Идентификатор : 2
Формат : AAC
Формат/Информация : Advanced Audio Codec
Профиль формата : LC
Идентификатор кодека : 40
Продолжительность : 1 ч. 56 м.
Duration_LastFrame : -16 мс.
Вид битрейта : Переменный
Битрейт : 128 Кбит/сек
Максимальный битрейт : 10000 Кбит/сек
Каналы : 2 канала
Расположение каналов : Front: L R
Частота : 44,1 КГц
Метод сжатия : С потерями
Размер потока : 106 Мбайт (28%)

Скриншоты



Создавать темы 16-Авг-2015 18:31

[Профиль]  [ЛС] 

Топик был перенесен из форума Азиатские фильмы в форум Видео для мобильных устройств
victor0778

Создавать темы 29-Авг-2015 20:42

 
Показать сообщения:    
Ответить на тему

Текущее время: 20-Ноя 21:56

Часовой пояс: UTC + 5



Вы не можете начинать темы
Вы не можете отвечать на сообщения
Вы не можете редактировать свои сообщения
Вы не можете удалять свои сообщения
Вы не можете голосовать в опросах
Вы не можете прикреплять файлы к сообщениям
Вы не можете скачивать файлы