[MOVIE] Болтливые киллеры / Killerdeului suda (Чжин Чжан) [2001, Корея Южная, боевик, криминал, комедия, DVDRip] (DVO)

Ответить на тему
 

Боксер ®

Стаж: 2 года

Сообщений: 54

Симпатии: 34

Болтливые киллеры / Killerdeului suda
Страна: Корея Южная
Жанр: боевик, криминал, комедия
Год выпуска: 2001
Продолжительность: 02:01:32
Перевод: Любительский (двухголосый закадровый)
Cубтитры: нет
Режиссер: Чжин Чжан
В ролях: Шин Хён Чжун, Син Ха Гюн, Вон Бин, Чон Чжэ Ён, Чон Джин Ён, Сын-хён Ох
Описание: Сан Юн, Чжон У, Чжэ Ён, и Ха Юн — четверо друзей, а по совместительству — наёмные киллеры. Сан Юн — их лидер, Чжон У — эксперт по взрывчаткам, Чжэ Ён — опытный снайпер, Ха Юн — компьютерный гений. Все четверо прекрасно дополняют друг друга и работают как один механизм в совершении преступлений. Ещё все четверо без ума от одной из ведущих новостей по телевидению. Когда она однажды просит их исполнить дерзкое и очень опасное убийство, они не могут ей в этом отказать.
Качество видео: DVDRip
Формат видео: MP4
Видео: 440 Кбит/с (340), 624х360 (1,732), в 25,000 кадр/сек, AVC
Аудио: 128 Кбит/с, 44,1 КГц, 2 канала, AAC

MediaInfo

Формат : MPEG-4
Профиль формата : Base Media
Идентификатор кодека : isom
Размер файла : 496 Мбайт
Продолжительность : 2 ч. 1 м.
Режим общего битрейта : Переменный
Общий поток : 570 Кбит/сек
Программа кодирования : Lavf54.59.106
Видео
Идентификатор : 1
Формат : AVC
Формат/Информация : Advanced Video Codec
Профиль формата : [email protected]
Параметр CABAC формата : Нет
Параметр ReFrames формата : 3 кадра
Идентификатор кодека : avc1
Идентификатор кодека/Информация : Advanced Video Coding
Продолжительность : 2 ч. 1 м.
Битрейт : 440 Кбит/сек
Ширина : 624 пикселя
Высота : 360 пикселей
Соотношение сторон : 1,732
Соотношение сторон в оригинале : 1,731
Режим частоты кадров : Постоянный
Частота кадров : 25,000 кадров/сек
Цветовое пространство : YUV
Субдискретизация насыщенности : 4:2:0
Битовая глубина : 8 бит
Тип развёртки : Прогрессивная
Бит/(Пиксели*Кадры) : 0.078
Размер потока : 380 Мбайт (77%)
Библиотека кодирования : x264 core 129
Настройки программы : cabac=0 / ref=3 / deblock=1:0:0 / analyse=0x1:0x111 / me=hex / subme=7 / psy=1 / psy_rd=1.00:0.00 / mixed_ref=1 / me_range=16 / chroma_me=1 / trellis=1 / 8x8dct=0 / cqm=0 / deadzone=21,11 / fast_pskip=1 / chroma_qp_offset=-2 / threads=24 / lookahead_threads=4 / sliced_threads=0 / nr=0 / decimate=1 / interlaced=0 / bluray_compat=0 / constrained_intra=0 / bframes=0 / weightp=0 / keyint=250 / keyint_min=25 / scenecut=40 / intra_refresh=0 / rc_lookahead=40 / rc=abr / mbtree=1 / bitrate=440 / ratetol=1.0 / qcomp=0.60 / qpmin=0 / qpmax=69 / qpstep=4 / vbv_maxrate=10000 / vbv_bufsize=10000 / nal_hrd=none / ip_ratio=1.40 / aq=1:1.00
Аудио
Идентификатор : 2
Формат : AAC
Формат/Информация : Advanced Audio Codec
Профиль формата : LC
Идентификатор кодека : 40
Продолжительность : 2 ч. 1 м.
Вид битрейта : Переменный
Битрейт : 128 Кбит/сек
Максимальный битрейт : 10000 Кбит/сек
Каналы : 2 канала
Расположение каналов : Front: L R
Частота : 44,1 КГц
Метод сжатия : С потерями
Размер потока : 111 Мбайт (22%)

Скриншоты





Последний раз редактировалось: Боксер (2015-08-30 07:17), всего редактировалось 2 раз(а)

Создавать темы 16-Авг-2015 19:21

[Профиль]  [ЛС] 

Beka999

Стаж: 3 года 9 месяцев

Сообщений: 15

Симпатии: 13

Продолжительность: 2ч:2м чч:мм:сс

Создавать темы 18-Авг-2015 15:27

[Профиль]  [ЛС] 

Боксер ®

Стаж: 2 года

Сообщений: 54

Симпатии: 34

Beka999, Исправил

Создавать темы 18-Авг-2015 18:58

[Профиль]  [ЛС] 

FRIEND

Стаж: 6 лет 6 месяцев

Сообщений: 120

Симпатии: 7

Обожаю этот фильм!

Создавать темы 22-Авг-2015 22:38

[Профиль]  [ЛС] 

Топик был перенесен из форума Азиатские фильмы в форум Видео для мобильных устройств
victor0778

Создавать темы 29-Авг-2015 20:41

 
Показать сообщения:    
Ответить на тему

Текущее время: 21-Авг 22:41

Часовой пояс: UTC + 5



Вы не можете начинать темы
Вы не можете отвечать на сообщения
Вы не можете редактировать свои сообщения
Вы не можете удалять свои сообщения
Вы не можете голосовать в опросах
Вы не можете прикреплять файлы к сообщениям
Вы не можете скачивать файлы