[MOVIE]Параллельная жизнь / Pyeong-haeng-i-ron (Квон Хо Ён) [2010, Корея Южная, триллер, DVDRip] (DVO)

Ответить на тему
 

Боксер ®

Стаж: 2 года 4 месяца

Сообщений: 54

Симпатии: 34

Параллельная жизнь / Pyeong-haeng-i-ron
Страна: Корея Южная
Жанр: триллер
Год выпуска: 2010
Продолжительность: 01:50:28
Перевод: Любительский (двухголосый закадровый)
Cубтитры: нет
Режиссер: Квон Хо Ён
В ролях: Чи Чжин Хи, Ли Чжон Хёк ,Юн Се А, Ха Чон У
Описание: Существует книга «Теория Параллельной жизни», где один профессор выдвинул версию, что человек может прожить чужую жизнь, в точности её повторив. Так, например, Кеннеди в точности повторил судьбу Линкольна…
Ким Сок Хён в свои 36 лет, признан самым молодым корейским судьей по уголовным делам. Ему не на что жаловаться. Красив, богат, умен, да еще рядом прекрасная жена и маленькая дочурка. Но всё это счастье рушится в мгновение ока…
В один прекрасный день жену Ким Сок Хёна жестоко убивают. Главным подозреваемым по делу проходит мужчина по имени Чжон Су Ён, который «имел зуб» на Ким Сок Хёна. Чжон Су Ёну предъявляют обвинение в убийстве и дело закрывают.
Но всё оказывается не так просто… Опираясь на Теорию Параллельной жизни, выясняется, что судьба Ким Сок Хёна очень схожа с судьбой судьи Хан Сон Чжуна. 30 лет назад Хан Сон Чжун, так же как и Сок Хён, стал первым самым молодым корейским судьей по уголовным делам. Его жена и дочь были так же зверски убиты. Создается ощущение, что Ким Сок Хён живет жизнью Хан Сон Чжуна… только уже через 30 лет.
Качество видео: DVDRip
Формат видео: MP4
Видео: 340 Кбит/с (340), 640х272 (2.35:1), в 25,000 кадр/сек, AVC
Аудио: 128 Кбит/с, 44,1 КГц, 2 канала, AAC

MediaInfo

Формат : MPEG-4
Профиль формата : Base Media
Идентификатор кодека : isom
Размер файла : 373 Мбайт
Продолжительность : 1 ч. 50 м.
Режим общего битрейта : Переменный
Общий поток : 472 Кбит/сек
Программа кодирования : Lavf54.59.106
Видео
Идентификатор : 1
Формат : AVC
Формат/Информация : Advanced Video Codec
Профиль формата : [email protected]
Параметр CABAC формата : Нет
Параметр ReFrames формата : 3 кадра
Идентификатор кодека : avc1
Идентификатор кодека/Информация : Advanced Video Coding
Продолжительность : 1 ч. 50 м.
Битрейт : 340 Кбит/сек
Ширина : 640 пикселей
Высота : 272 пикселя
Соотношение сторон : 2,35:1
Режим частоты кадров : Постоянный
Частота кадров : 25,000 кадров/сек
Цветовое пространство : YUV
Субдискретизация насыщенности : 4:2:0
Битовая глубина : 8 бит
Тип развёртки : Прогрессивная
Бит/(Пиксели*Кадры) : 0.078
Размер потока : 268 Мбайт (72%)
Библиотека кодирования : x264 core 129
Настройки программы : cabac=0 / ref=3 / deblock=1:0:0 / analyse=0x1:0x111 / me=hex / subme=7 / psy=1 / psy_rd=1.00:0.00 / mixed_ref=1 / me_range=16 / chroma_me=1 / trellis=1 / 8x8dct=0 / cqm=0 / deadzone=21,11 / fast_pskip=1 / chroma_qp_offset=-2 / threads=24 / lookahead_threads=4 / sliced_threads=0 / nr=0 / decimate=1 / interlaced=0 / bluray_compat=0 / constrained_intra=0 / bframes=0 / weightp=0 / keyint=250 / keyint_min=25 / scenecut=40 / intra_refresh=0 / rc_lookahead=40 / rc=abr / mbtree=1 / bitrate=340 / ratetol=1.0 / qcomp=0.60 / qpmin=0 / qpmax=69 / qpstep=4 / vbv_maxrate=10000 / vbv_bufsize=10000 / nal_hrd=none / ip_ratio=1.40 / aq=1:1.00
Аудио
Идентификатор : 2
Формат : AAC
Формат/Информация : Advanced Audio Codec
Профиль формата : LC
Идентификатор кодека : 40
Продолжительность : 1 ч. 50 м.
Вид битрейта : Переменный
Битрейт : 128 Кбит/сек
Максимальный битрейт : 10000 Кбит/сек
Каналы : 2 канала
Расположение каналов : Front: L R
Частота : 44,1 КГц
Метод сжатия : С потерями
Размер потока : 101 Мбайт (27%)

Скриншоты







Последний раз редактировалось: Боксер (2015-08-18 18:10), всего редактировалось 1 раз

Создавать темы 16-Авг-2015 20:08

[Профиль]  [ЛС] 

Beka999

Стаж: 4 года

Сообщений: 15

Симпатии: 13

Продолжительность: 1ч:50м чч:мм:сс

Создавать темы 18-Авг-2015 14:43

[Профиль]  [ЛС] 

Боксер ®

Стаж: 2 года 4 месяца

Сообщений: 54

Симпатии: 34

Всем советую. 100 из 10. Шедевр из шедевров
Супер закрученный сюжет.
Я насчитал 6 убийц. А вы?

Создавать темы 18-Авг-2015 21:13

[Профиль]  [ЛС] 

Топик был перенесен из форума Азиатские фильмы в форум Видео для мобильных устройств
victor0778

Создавать темы 29-Авг-2015 20:39

 
Показать сообщения:    
Ответить на тему

Текущее время: 12-Дек 05:51

Часовой пояс: UTC + 5



Вы не можете начинать темы
Вы не можете отвечать на сообщения
Вы не можете редактировать свои сообщения
Вы не можете удалять свои сообщения
Вы не можете голосовать в опросах
Вы не можете прикреплять файлы к сообщениям
Вы не можете скачивать файлы